Правила форума

Здесь находятся раздачи, на которых не было полного источника (сида) более месяца.
Вы можете вернуть релиз в соответствующий раздел, для этого напишите нам в специальной теме и встаньте на раздачу.
Новые релизы, повторяющие релизы в архиве, повторами не считаются.
Начать новую темуОтветить на тему  [ Сообщений: 5 ] 
Сообщения
 Добавлено: 2011-11-07 17:23
Top-releaser
Аватара пользователя
Стаж: 8 лет 9 месяцев
Сообщений: 479
Спасибок: 20188
Лайков: 16
Изображение

Rise of the Planet of the Apes


« Эволюция становится революцией »

Изображение


Год выпуска: 2011
Страна: Изображение США; Изображение
Жанр: Фантастика, боевик, триллер, драма
Продолжительность: 01:44:57
Перевод: Профессиональный (дублированный) [звук с TS]

Режиссёр: Руперт Уайатт / Rupert Wyatt

В ролях: Джеймс Франко, Фрида Пинто, Джон Литгоу, Брайан Кокс, Том Фелтон, Дэвид Ойелоуо, Тайлер Лэбин, Джэми Харрис, Дэвид Хьюлетт, Ти Олссон и др.

Описание: Молодой ученый испытывает на обезьянах новое лекарство от болезни Альцгеймера. У препарата обнаруживается удивительный побочный эффект, он повышает в несколько раз интеллект приматов.


Качество: BDRip 720p
Формат: MKV

Видео: AVC, 1280 x 544 (2.353) at 23.976 fps, 4864 Кбит/сек

Аудио 1: 48 kHz, MP3, 2 ch, ~192 kbps (Дубляж)
Аудио 2: 48 kHz, DTS-HD, 6 канал(ов), ~1510 kbit/s (Оригинал)

Раздача: Изображение

Изображение

Изображение
MediaInfo

Общее
Уникальный идентификатор : 252022929838717079625710306214277138210 (0xBD99D9C91AB6B5CA98CFB3020B41C722)
Полное имя : C:\Users\Домашний\Desktop\Vosstanie planety obezyan.2011.BDRip.720p.[nntt].mkv
Формат : Matroska
Размер файла : 4,81 Гбайт
Продолжительность : 1 ч. 45 м.
Общий поток : 6561 Кбит/сек
Дата кодирования : UTC 2011-11-07 07:23:19
Программа кодирования : mkvmerge v5.0.1 ('Es ist Sommer') built on Oct 9 2011 11:55:43
Библиотека кодирования : libebml v1.2.2 + libmatroska v1.3.0

Видео
Идентификатор : 1
Формат : AVC
Формат/Информация : Advanced Video Codec
Профиль формата : High@L4.1
Параметр CABAC формата : Да
Параметр ReFrames формата : 12 кадры
Параметры GOP формата : M=1, N=54
Режим смешивания : Header stripping
Идентификатор кодека : V_MPEG4/ISO/AVC
Продолжительность : 1 ч. 45 м.
Битрейт : 4864 Кбит/сек
Ширина : 1280 пикс.
Высота : 544 пикс.
Соотношение сторон : 2,35:1
Частота кадров : 23,976 кадр/сек
Цветовое пространство : YUV
Подвыборка цветности : 4:2:0
Битовая глубина : 8 бит
Тип развёртки : Прогрессивная
Бит/(Пиксели*Кадры) : 0.291
Размер потока : 3,47 Гбайт (72%)
Заголовок : Rise.of.the.Planet.of.the.Apes.2011.BluRay.720p.DTS.2Audio.x264-CHD
Библиотека кодирования : x264 core 102 r1666 d058f37
Настройки программы : cabac=1 / ref=12 / deblock=1:-3:-3 / analyse=0x3:0x113 / me=umh / subme=10 / psy=1 / psy_rd=1.05:0.10 / mixed_ref=1 / me_range=32 / chroma_me=1 / trellis=2 / 8x8dct=1 / cqm=2 / deadzone=21,11 / fast_pskip=0 / chroma_qp_offset=-2 / threads=6 / sliced_threads=0 / nr=0 / decimate=1 / interlaced=0 / constrained_intra=0 / bframes=6 / b_pyramid=2 / b_adapt=2 / b_bias=0 / direct=3 / weightb=1 / open_gop=0 / weightp=2 / keyint=250 / keyint_min=25 / scenecut=40 / intra_refresh=0 / rc_lookahead=40 / rc=2pass / mbtree=1 / bitrate=4864 / ratetol=1.0 / qcomp=0.60 / qpmin=10 / qpmax=51 / qpstep=4 / cplxblur=20.0 / qblur=0.5 / vbv_maxrate=50000 / vbv_bufsize=50000 / ip_ratio=1.40 / aq=1:0.80 / nal_hrd=none
Язык : English

Аудио #1
Идентификатор : 2
Формат : MPEG Audio
Версия формата : Version 1
Профиль формата : Layer 3
Режим : Joint stereo
Режим смешивания : Header stripping
Идентификатор кодека : A_MPEG/L3
Идентификатор кодека/Подсказка : MP3
Продолжительность : 1 ч. 45 м.
Вид битрейта : Постоянный
Битрейт : 192 Кбит/сек
Канал(ы) : 2 канала(ов)
Частота : 48,0 КГц
Метод сжатия : С потерями
Задержка видео : 2 с. 800 мс.
Размер потока : 144 Мбайт (3%)
Язык : Russian

Аудио #2
Идентификатор : 3
Формат : DTS
Формат/Информация : Digital Theater Systems
Режим смешивания : Header stripping
Идентификатор кодека : A_DTS
Продолжительность : 1 ч. 45 м.
Вид битрейта : Постоянный
Битрейт : 1510 Кбит/сек
Канал(ы) : 6 канала(ов)
Расположение каналов : Front: L C R, Side: L R, LFE
Частота : 48,0 КГц
Битовая глубина : 24 бит
Метод сжатия : С потерями
Размер потока : 1,11 Гбайт (23%)
Заголовок : Rise.of.the.Planet.of.the.Apes.2011.DTS-HD.MA.Core_1509kbps
Язык : English


Свернуть
Скриншоты
Изображение
Изображение
Изображение
Изображение
Изображение
Изображение
Свернуть
_________________
Изображение
Изображение
Не в сети
Профиль  
 Добавлено: 2011-11-08 06:10 (спустя 12 часов)
Аватара пользователя
Стаж: 9 лет
Сообщений: 167
Спасибок: 38
жду полный блю рей выложте если есть
Не в сети
Профиль  
 Добавлено: 2011-11-08 07:11 (спустя 1 час)
Аватара пользователя
Стаж: 6 лет 2 месяца
Возраст: 33
Сообщений: 309
Спасибок: 598
Лайков: 5
:co_ol: УХ! :co_ol:
_________________
Не теряйте свою голову, жизнь хочет вам по ней погладить...
Не в сети
Профиль  
 Добавлено: 2011-11-08 17:32 (спустя 10 часов)
Аватара пользователя
Стаж: 9 лет
Сообщений: 167
Спасибок: 38
дайте полную версию
Не в сети
Профиль  
 Добавлено: 2011-11-09 19:37 (спустя 1 день 2 часа)
Аватара пользователя
Стаж: 7 лет 7 месяцев
Сообщений: 286
Лайков: 29
вопросик ребят, когда будет чистый звук?
Не в сети
Профиль  
Начать новую темуОтветить на тему  [ Сообщений: 5 ] 
Вы не можете начинать темы
Вы не можете отвечать на сообщения
Вы не можете редактировать свои сообщения
Вы не можете удалять свои сообщения