Правила форума

Здесь находятся раздачи, на которых не было полного источника (сида) более месяца.
Вы можете вернуть релиз в соответствующий раздел, для этого напишите нам в специальной теме и встаньте на раздачу.
Новые релизы, повторяющие релизы в архиве, повторами не считаются.
Начать новую темуОтветить на тему  [ Сообщений: 12 ] 
Сообщения
 Добавлено: 2011-09-03 10:06
Модератор релиз-группы
Аватара пользователя
Стаж: 9 лет 1 месяц
Возраст: 97
Сообщений: 11659
Спасибок: 6530
Лайков: 269
Изображение
Изображение
Восставший из ада 1, 2, 3, 4 / Hellraiser 1, 2, 3, 4

Изображение


Восставший из ада
Восставший из ада / Hellraiser

Изображение



Год выпуска: 1987
Страна: Великобритания
Жанр: ужасы, фэнтези, мелодрама
Продолжительность: 1:33:22
Перевод: Профессиональный (многоголосый, закадровый)
Авторский- Гаврилов
Авторский- Живов
Режиссер: Клайв Баркер / Clive Barker
В ролях: Эндрю Робинсон, Клер Хиггинс, Эшли Лоуренс, Шон Чэпман, Оливер Смит, Роберт Хайнс, Энтони Аллен, Леон Дэвис, Майкл Кэссиди, Фрэнк Бэйкер и другие
Описание: Расставив вокруг себя зажженные свечи, Френк открывает купленную им на восточном базаре старинную шкатулку. Легенда гласит, что живущие в ней демоны, могут доставить владельцу неописуемые наслаждения. Но Френк не мог и предположить, что эта шкатулка ключ к воротам из ада…
Качество: Blu-ray Remux
Формат: MKV
Видео кодек: H.264
Аудио кодек: AC3, DTS
Видео: H.264, 1920x1080 (16:9), 26.7mbps, 23,976fps, 0,538b/px
Аудио#1: Russian (Многоголосый) DTS 768kbps 6ch 48KHz
Аудио#2: Russian AC3 448kbps 6ch 48KHz (Авторский- Гаврилов)
Аудио#3: Russian AC3 192kbps 2ch (Авторский-Живов)
Скриншоты
Изображение

Изображение

Изображение
Свернуть
Mi
Format : Matroska
Format version : Version 2
File size : 19.1 GiB
Duration : 1h 33mn
Overall bit rate : 29.4 Mbps
Encoded date : UTC 2011-09-03 04:55:37
Writing application : mkvmerge v4.9.1 ('Ich will') сборка от Jul 11 2011 23:53:15
Writing library : libebml v1.2.1 + libmatroska v1.1.1

Video
ID : 1
Format : AVC
Format/Info : Advanced Video Codec
Format profile : High@L4.1
Format settings, CABAC : Yes
Format settings, ReFrames : 2 frames
Format settings, GOP : M=1, N=20
Codec ID : V_MPEG4/ISO/AVC
Duration : 1h 33mn
Bit rate mode : Variable
Bit rate : 27.4 Mbps
Width : 1 920 pixels
Height : 1 080 pixels
Display aspect ratio : 16:9
Frame rate : 23.976 fps
Color space : YUV
Chroma subsampling : 4:2:0
Bit depth : 8 bits
Scan type : Progressive
Bits/(Pixel*Frame) : 0.551
Stream size : 17.9 GiB (93%)
Title : Восставший из ада / Hellraiser (by Juicy_J)
Language : English

Audio #1
ID : 2
Format : DTS
Format/Info : Digital Theater Systems
Codec ID : A_DTS
Duration : 1h 33mn
Bit rate mode : Constant
Bit rate : 755 Kbps
Channel(s) : 6 channels
Channel positions : Front: L C R, Side: L R, LFE
Sampling rate : 48.0 KHz
Bit depth : 24 bits
Compression mode : Lossy
Stream size : 504 MiB (3%)
Title : Russian (Многоголосый) DTS 768kbps 6ch 48KHz
Language : Russian

Audio #2
ID : 3
Format : AC-3
Format/Info : Audio Coding 3
Mode extension : CM (complete main)
Codec ID : A_AC3
Duration : 1h 33mn
Bit rate mode : Constant
Bit rate : 448 Kbps
Channel(s) : 6 channels
Channel positions : Front: L C R, Side: L R, LFE
Sampling rate : 48.0 KHz
Bit depth : 16 bits
Compression mode : Lossy
Stream size : 299 MiB (2%)
Title : Russian (Одноголосый-Гаврилов) AC3 448kbps 6ch 48KHz
Language : Russian

Audio #3
ID : 4
Format : AC-3
Format/Info : Audio Coding 3
Mode extension : CM (complete main)
Codec ID : A_AC3
Duration : 1h 33mn
Bit rate mode : Constant
Bit rate : 192 Kbps
Channel(s) : 2 channels
Channel positions : Front: L R
Sampling rate : 48.0 KHz
Bit depth : 16 bits
Compression mode : Lossy
Stream size : 128 MiB (1%)
Title : Russian (Одноголосый-Живов) AC3 192kbps 2ch 48KHz
Language : Russian

Свернуть
Свернуть




Восставший из ада 2
Восставший из ада 2 / Hellraiser 2

Изображение



Год выпуска: 1988
Страна: Великобритания
Жанр: ужасы
Продолжительность: 01:39:03
Перевод: Профессиональный (многоголосый, закадровый)West Video
Профессиональный (многоголосый, закадровый)DDV
Профессиональный (двухголосый, закадровый)Гланц и Королёва
Авторский- Горчаков
Авторский- Гаврилов
Авторский- Живов

Режиссер: Тони Рэндел / Tony Randel

В ролях: Клэр Хиггинс, Эшли Лоуренс, Кеннет Крэнэм, Имоджен Бурман, Шон Чэпман, Уильям Хоуп, Даг Брэдли, Барби Вильде, Саймон Бэмфорд, Николас Винс, Оливер Смит, Энгус МакИннес, Дебора Джоэль, James Tillitt, Брэдли Лэвэлл, Эдвин Крэйг, Рон Трэвис, Оливер Паркер, Катрин Шевалье

Описание: На сей раз героиней становится приемная дочь Джулии Кирсти. Чудом спасшись из проклятого дома и пережив тяжелый шок, она попадает в психиатрическую клинику, принадлежащую доктору Ченнерду. Тот убеждает девушку, что пережитое-плод ее больного воображения. На самом деле Ченнерд сам пытается проникнуть в тайну загадочного магического кубика, ради чего готов пожертвовать своими беспомощными пациентами. Он оживляет кровожадную красавицу Джулию и, став рабом ее красоты, с рвением принимается за реализацию совместных зловещих планов. Когда он складывает головоломку, врата между преисподней и нашим миром оказываются открытыми. Кирсти попадает в его адские лабиринты и пытается спасти своего отца Ларри. Она получает послание от него, в котором он умоляет Кирсти вызволить его из этого страшного мира. Лишь она может противостоять этому дьявольскому сговору и спасти своего отца, для чего ей предстоит пройти страшный путь по коридорам Ада…

Качество: BDRemux
Формат: MKV
Видео: MPEG-4 AVC Video 19994 kbps 1080p / 23,976 fps / 16:9 / High Profile 4.1
Аудио: Dolby Digital Audio Russian 5.1 / 48 kHz / 384 kbps [West Video]
Аудио: Dolby Digital Audio Russian 5.1 / 48 kHz / 448 kbps [DDV]
Аудио: Dolby Digital Audio Russian 5.1 / 48 kHz / 448 kbps [Горчаков]
Аудио: Dolby Digital Audio Russian 5.1 / 48 kHz / 384 kbps [Гаврилов]
Аудио: Dolby Digital Audio Russian 2.0 / 48 kHz / 192 kbps [Живов]
Аудио: DTS Audio Russian 5.1 / 48 kHz / 1792 kbps / 16-bit [Гланц и Королёва]
Скриншоты
Изображение

Изображение

Изображение
Свернуть
Mi
Format : Matroska
Format version : Version 2
File size : 16.4 GiB
Duration : 1h 39mn
Overall bit rate : 23.7 Mbps
Movie name : Hellraiser.2.1988.1080p.Bluray.GER.Uncut.AVC.Remux
Encoded date : UTC 2011-09-03 05:21:51
Writing application : mkvmerge v4.9.1 ('Ich will') сборка от Jul 11 2011 23:53:15
Writing library : libebml v1.2.1 + libmatroska v1.1.1

Video
ID : 1
Format : AVC
Format/Info : Advanced Video Codec
Format profile : High@L4.1
Format settings, CABAC : Yes
Format settings, ReFrames : 4 frames
Codec ID : V_MPEG4/ISO/AVC
Duration : 1h 39mn
Bit rate mode : Variable
Bit rate : 19.8 Mbps
Maximum bit rate : 39.0 Mbps
Width : 1 920 pixels
Height : 1 080 pixels
Display aspect ratio : 16:9
Frame rate : 23.976 fps
Color space : YUV
Chroma subsampling : 4:2:0
Bit depth : 8 bits
Scan type : Progressive
Bits/(Pixel*Frame) : 0.398
Stream size : 13.7 GiB (84%)
Title : uralmix
Color primaries : BT.709-5, BT.1361, IEC 61966-2-4, SMPTE RP177
Transfer characteristics : BT.709-5, BT.1361
Matrix coefficients : BT.709-5, BT.1361, IEC 61966-2-4 709, SMPTE RP177

Audio #1
ID : 2
Format : AC-3
Format/Info : Audio Coding 3
Mode extension : CM (complete main)
Codec ID : A_AC3
Duration : 1h 39mn
Bit rate mode : Constant
Bit rate : 384 Kbps
Channel(s) : 6 channels
Channel positions : Front: L C R, Side: L R, LFE
Sampling rate : 48.0 KHz
Bit depth : 16 bits
Compression mode : Lossy
Stream size : 272 MiB (2%)
Title : West Video
Language : Russian

Audio #2
ID : 3
Format : AC-3
Format/Info : Audio Coding 3
Mode extension : CM (complete main)
Codec ID : A_AC3
Duration : 1h 39mn
Bit rate mode : Constant
Bit rate : 448 Kbps
Channel(s) : 6 channels
Channel positions : Front: L C R, Side: L R, LFE
Sampling rate : 48.0 KHz
Bit depth : 16 bits
Compression mode : Lossy
Stream size : 317 MiB (2%)
Title : DDV
Language : Russian

Audio #3
ID : 4
Format : AC-3
Format/Info : Audio Coding 3
Mode extension : CM (complete main)
Codec ID : A_AC3
Duration : 1h 39mn
Bit rate mode : Constant
Bit rate : 448 Kbps
Channel(s) : 6 channels
Channel positions : Front: L C R, Side: L R, LFE
Sampling rate : 48.0 KHz
Bit depth : 16 bits
Compression mode : Lossy
Stream size : 317 MiB (2%)
Title : авторский - Василий Горчаков
Language : Russian

Audio #4
ID : 5
Format : DTS
Format/Info : Digital Theater Systems
Format profile : MA / Core
Codec ID : A_DTS
Duration : 1h 39mn
Bit rate mode : Variable
Bit rate : 1 561 Kbps / 1 510 Kbps
Channel(s) : 6 channels
Channel positions : Front: L C R, Side: L R, LFE
Sampling rate : 48.0 KHz
Bit depth : 16 bits
Compression mode : Lossless / Lossy
Title : Петр Гланц и Инна Королева
Language : Russian

Audio #5
ID : 6
Format : AC-3
Format/Info : Audio Coding 3
Mode extension : CM (complete main)
Codec ID : A_AC3
Duration : 1h 39mn
Bit rate mode : Constant
Bit rate : 384 Kbps
Channel(s) : 6 channels
Channel positions : Front: L C R, Side: L R, LFE
Sampling rate : 48.0 KHz
Bit depth : 16 bits
Compression mode : Lossy
Stream size : 272 MiB (2%)
Title : авторский - Андрей Гаврилов (c dvd West Video)
Language : Russian

Audio #6
ID : 7
Format : AC-3
Format/Info : Audio Coding 3
Mode extension : CM (complete main)
Codec ID : A_AC3
Duration : 1h 39mn
Bit rate mode : Constant
Bit rate : 192 Kbps
Channel(s) : 2 channels
Channel positions : Front: L R
Sampling rate : 48.0 KHz
Bit depth : 16 bits
Compression mode : Lossy
Stream size : 136 MiB (1%)
Title : авторский - Юрий Живов
Language : Russian

Menu
00:00:00.000 : en:00:00:00.000
00:03:31.294 : en:00:03:31.294
00:13:42.739 : en:00:13:42.739
00:24:04.193 : en:00:24:04.193
00:34:14.886 : en:00:34:14.886
00:45:09.415 : en:00:45:09.415
00:54:38.233 : en:00:54:38.233
01:05:21.668 : en:01:05:21.668
01:16:02.683 : en:01:16:02.683
01:24:20.055 : en:01:24:20.055
01:36:10.056 : en:01:36:10.056

Свернуть
Свернуть




Восставший из ада 3
Восставший из ада 3: Ад на Земле / Hellraiser III: Hell on Earth

Изображение

Год выпуска: 1992
Страна: США, Канада
Жанр: ужасы
Продолжительность: 01:33:06
Перевод: Профессиональный (многоголосый, закадровый)
Авторский (одноголосый) Андрей Гаврилов
Одноголосый, закадровый - Сергей Зереницын
Профессиональный (двухголосый) Петр Гланц и Инна Королева
Cубтитры: русские

Режиссер: Энтони Хикокс / Anthony Hickox

В ролях: Кевин Бернхардт, Лоуренс Морторфф, Терри Фаррелл, Кен Карпентер, Шарон Хилл, Пола Маршалл, Роберт С. Тревилер, Кристофер Фредерик, Lawrence Kuppin, Шарон Персивал

Описание: Недремлющее Зло вновь вырывается из своего потустороннего плена и начинает настоящую бойню. И, как это частенько водится, на всей планете есть только один человек, который в состоянии противостоять темной адской воле этого исчадия - милая и очаровательная тележурналистка Джоуи.

Видео: 1920x1080 at 23.976 fps, MPEG-4 AVC, ~22963 kbps avg
Аудио#1: Russian: 48 kHz, AC3, 3/2 (L,C,R,l,r) + LFE ch, ~384.00 kbps avg |Многоголосый закадровый, R5|
Аудио#2: Russian: 48 kHz, AC3, 3/2 (L,C,R,l,r) + LFE ch, ~384.00 kbps avg |Одноголосый закадровый, А. Гаврилов|
Аудио#3: Russian: 48 kHz, AC3, 2/0 (L,R) ch, ~192.00 kbps avg |Одноголосый закадровый, С. Зереницын|
Аудио#4: Russian: 48 kHz/16-bit, DTS, 2/0 (L,R) ch, ~512 Kbps avg |Двухголосый закадровый, Петр Гланц и Инна Королёва|
Субтитры: Russian
скриншоты
Изображение

Изображение

Изображение
Свернуть
Mi
Format : Matroska
Format version : Version 2
File size : 15.9 GiB
Duration : 1h 33mn
Overall bit rate mode : Variable
Overall bit rate : 24.5 Mbps
Encoded date : UTC 2012-03-04 14:11:55
Writing application : mkvmerge v5.3.0 ('I could have danced') built on Feb 9 2012 10:38:07
Writing library : libebml v1.2.3 + libmatroska v1.3.0

Video
ID : 1
Format : AVC
Format/Info : Advanced Video Codec
Format profile : High@L4.1
Format settings, CABAC : Yes
Format settings, ReFrames : 4 frames
Codec ID : V_MPEG4/ISO/AVC
Duration : 1h 33mn
Bit rate mode : Variable
Bit rate : 22.5 Mbps
Maximum bit rate : 40.0 Mbps
Width : 1 920 pixels
Height : 1 080 pixels
Display aspect ratio : 16:9
Frame rate : 23.976 fps
Color space : YUV
Chroma subsampling : 4:2:0
Bit depth : 8 bits
Scan type : Progressive
Bits/(Pixel*Frame) : 0.453
Stream size : 14.6 GiB (92%)
Default : Yes
Forced : No
Color primaries : BT.709-5, BT.1361, IEC 61966-2-4, SMPTE RP177
Transfer characteristics : BT.709-5, BT.1361
Matrix coefficients : BT.709-5, BT.1361, IEC 61966-2-4 709, SMPTE RP177

Audio #1
ID : 2
Format : AC-3
Format/Info : Audio Coding 3
Mode extension : CM (complete main)
Codec ID : A_AC3
Duration : 1h 33mn
Bit rate mode : Constant
Bit rate : 384 Kbps
Channel(s) : 6 channels
Channel positions : Front: L C R, Side: L R, LFE
Sampling rate : 48.0 KHz
Bit depth : 16 bits
Compression mode : Lossy
Stream size : 256 MiB (2%)
Language : Russian
Default : Yes
Forced : No

Audio #2
ID : 3
Format : AC-3
Format/Info : Audio Coding 3
Mode extension : CM (complete main)
Codec ID : A_AC3
Duration : 1h 33mn
Bit rate mode : Constant
Bit rate : 384 Kbps
Channel(s) : 6 channels
Channel positions : Front: L C R, Side: L R, LFE
Sampling rate : 48.0 KHz
Bit depth : 16 bits
Compression mode : Lossy
Stream size : 256 MiB (2%)
Language : Russian
Default : No
Forced : No

Audio #3
ID : 4
Format : AC-3
Format/Info : Audio Coding 3
Mode extension : CM (complete main)
Codec ID : A_AC3
Duration : 1h 33mn
Bit rate mode : Constant
Bit rate : 192 Kbps
Channel(s) : 2 channels
Channel positions : Front: L R
Sampling rate : 48.0 KHz
Bit depth : 16 bits
Compression mode : Lossy
Stream size : 128 MiB (1%)
Language : Russian
Default : No
Forced : No

Audio #4
ID : 5
Format : DTS
Format/Info : Digital Theater Systems
Codec ID : A_DTS
Duration : 1h 33mn
Bit rate mode : Constant
Bit rate : 512 Kbps
Channel(s) : 2 channels
Channel positions : Front: L R
Sampling rate : 48.0 KHz
Bit depth : 16 bits
Compression mode : Lossy
Stream size : 341 MiB (2%)
Language : Russian
Default : No
Forced : No

Text
ID : 6
Format : PGS
Muxing mode : zlib
Codec ID : S_HDMV/PGS
Codec ID/Info : The same subtitle format used on BDs/HD-DVDs
Language : Russian
Default : Yes
Forced : No

Свернуть
Свернуть




Восставший из ада 4
Восставший из ада 4 / Hellraiser IV: Bloodline

Изображение


Год выпуска: 1996
Страна: США
Жанр: ужасы
Продолжительность: 01:24:44
Перевод: Профессиональный (многоголосый, закадровый) West Video
Авторский (одноголосый, закадровый) Андрей Гаврилов

Режиссер: Кевин Ягер / Kevin Yagher, Алан Смити / Alan Smithee, Джо Чаппелль / Joe Chappelle
В ролях: Брюс Рэмсей, Валентина Варгас, Даг Брэдли, Шарлотта Чаттон, Адам Скотт, Ким Майерс, Мики Коттрелл, Луи Тюренн, Кортленд Мид, Луис Мустилльо

Описание: В межпланетных глубинах 21 века в 2127-ом году на космической станции Минос, Доктор Мерчант, одержимый какими-то странными, безумными идеями, захватил станцию, чтобы провести в жизнь свои таинственные эксперименты, Доктора «повязали», и он рассказал, как же он дошел до жизни такой, И выяснилось, что причина безумия доктора — в магическом кубике, изготовленном мастером игрушек Ле Маршаном еще несколько столетий назад.

Качество: BDRemux
Формат: MKV
Видео: MPEG-4 AVC Video 31000 kbps 1080p / 23,976 fps / 16:9 / High Profile 4.1
Аудио #1: Dolby Digital Audio Russian 5.1 / 48 kHz / 384 kbps [Профессиональный (многоголосый, закадровый)R5]
Аудио #2: Dolby Digital Audio Russian 5.1 / 48 kHz / 384 kbps [Авторский (одноголосый, закадровый) Андрей Гаврилов]
Скриншоты
Изображение

Изображение

Изображение

Свернуть
Mi
Format : Matroska
Format version : Version 2
File size : 18.3 GiB
Duration : 1h 24mn
Overall bit rate : 30.8 Mbps
Movie name : Hellraiser.2.1988.1080p.Bluray.GER.Uncut.AVC.Remux
Encoded date : UTC 2011-09-03 06:11:04
Writing application : mkvmerge v4.9.1 ('Ich will') сборка от Jul 11 2011 23:53:15
Writing library : libebml v1.2.1 + libmatroska v1.1.1

Video
ID : 1
Format : AVC
Format/Info : Advanced Video Codec
Format profile : High@L4.1
Format settings, CABAC : Yes
Format settings, ReFrames : 4 frames
Codec ID : V_MPEG4/ISO/AVC
Duration : 1h 24mn
Bit rate mode : Variable
Bit rate : 29.5 Mbps
Maximum bit rate : 39.0 Mbps
Width : 1 920 pixels
Height : 1 080 pixels
Display aspect ratio : 16:9
Frame rate : 23.976 fps
Standard : NTSC
Color space : YUV
Chroma subsampling : 4:2:0
Bit depth : 8 bits
Scan type : Progressive
Bits/(Pixel*Frame) : 0.593
Stream size : 17.4 GiB (96%)
Title : uralmix

Audio #1
ID : 2
Format : AC-3
Format/Info : Audio Coding 3
Mode extension : CM (complete main)
Codec ID : A_AC3
Duration : 1h 24mn
Bit rate mode : Constant
Bit rate : 384 Kbps
Channel(s) : 6 channels
Channel positions : Front: L C R, Side: L R, LFE
Sampling rate : 48.0 KHz
Bit depth : 16 bits
Compression mode : Lossy
Stream size : 233 MiB (1%)
Title : West Video
Language : Russian

Audio #2
ID : 3
Format : AC-3
Format/Info : Audio Coding 3
Mode extension : CM (complete main)
Codec ID : A_AC3
Duration : 1h 24mn
Bit rate mode : Constant
Bit rate : 384 Kbps
Channel(s) : 6 channels
Channel positions : Front: L C R, Side: L R, LFE
Sampling rate : 48.0 KHz
Bit depth : 16 bits
Compression mode : Lossy
Stream size : 233 MiB (1%)
Title : авторский - Андрей Гаврилов
Language : Russian

Menu
00:00:00.000 : en:00:00:00.000
00:05:34.167 : en:00:05:34.167
00:10:17.951 : en:00:10:17.951
00:18:36.657 : en:00:18:36.657
00:24:00.773 : en:00:24:00.773
00:26:31.048 : en:00:26:31.048
00:30:51.266 : en:00:30:51.266
00:37:28.204 : en:00:37:28.204
00:41:56.848 : en:00:41:56.848
00:49:31.218 : en:00:49:31.218
00:53:01.929 : en:00:53:01.929
00:59:31.526 : en:00:59:31.526
01:02:01.676 : en:01:02:01.676
01:08:54.380 : en:01:08:54.380
01:14:17.870 : en:01:14:17.870

Свернуть
Свернуть
Изображение
_________________
Изображение


Последний раз редактировалось Артурыч 2012-06-18 09:57, всего редактировалось 4 раз(а).
Не в сети
Профиль  
 Добавлено: 2011-09-03 22:30 (спустя 12 часов)
Аватара пользователя
Стаж: 8 лет 3 месяца
Возраст: 43
Сообщений: 3290
Спасибок: 21012
Лайков: 3
классика жанра, временно в объявления :co_ol:
_________________
Изображение
Не в сети
Профиль  
 Добавлено: 2011-09-05 10:30 (спустя 1 день 12 часов)
Top-seeder
Аватара пользователя
Стаж: 6 лет 10 месяцев
Возраст: 28
Сообщений: 280
Спасибок: 605
:sh_ok:
когда будет 1080 или 720?
_________________

Изображение
Приму в дар,или куплю радиотехнику(усилители,колонки)
Изображение
Изображение
Не в сети
Профиль  
 Добавлено: 2011-10-10 19:55 (спустя 1 месяц 5 дней)
Аватара пользователя
Стаж: 8 лет 3 месяца
Возраст: 43
Сообщений: 3290
Спасибок: 21012
Лайков: 3
отлепляем :(
_________________
Изображение
Не в сети
Профиль  
 Добавлено: 2011-10-10 19:59 (спустя 3 минуты)
Модератор релиз-группы
Аватара пользователя
Стаж: 9 лет 1 месяц
Возраст: 97
Сообщений: 11659
Спасибок: 6530
Лайков: 269
ты её убил :hi_hi_hi:
_________________
Изображение
Не в сети
Профиль  
 Добавлено: 2011-10-10 20:15 (спустя 15 минут)
Аватара пользователя
Стаж: 8 лет 3 месяца
Возраст: 43
Сообщений: 3290
Спасибок: 21012
Лайков: 3
посмотрим чуток, если что, опять в объявления повесим. Не нужно, что бы раздачи умирали ;)
_________________
Изображение
Не в сети
Профиль  
 Добавлено: 2011-10-10 20:35 (спустя 20 минут)
Модератор релиз-группы
Аватара пользователя
Стаж: 9 лет 1 месяц
Возраст: 97
Сообщений: 11659
Спасибок: 6530
Лайков: 269
это да :)
третью часть качаем !!! :dan_ser:
ссылка в шапке
_________________
Изображение
Не в сети
Профиль  
 Добавлено: 2012-08-19 14:28 (спустя 10 месяцев)
Кинокомментатор
Аватара пользователя
Стаж: 8 лет 6 месяцев
Возраст: 39
Сообщений: 1841
Спасибок: 130
Лайков: 4
Вроде были части 5,6,7? Или я путаю?
Не в сети
Профиль  
 Добавлено: 2012-08-20 20:33 (спустя 1 день 6 часов)
Модератор релиз-группы
Аватара пользователя
Стаж: 9 лет 1 месяц
Возраст: 97
Сообщений: 11659
Спасибок: 6530
Лайков: 269

alx555:

Вроде были части 5,6,7?
они есть, но тут их не было, ибо нет в FHD
_________________
Изображение
Не в сети
Профиль  
 Добавлено: 2013-08-26 20:06 (спустя 1 год)
Стаж: 5 лет 8 месяцев
Сообщений: 2
прибавьте оборотов! :bra_vo:
Не в сети
Профиль  
 Добавлено: 2013-12-16 17:52 (спустя 3 месяца 20 дней)
Стаж: 2 года 11 месяцев
Сообщений: 21
надо будет глянуть , давным давно смотрел
_________________
Быстрый , стабильный заработок , без начальных вложений , до 30 $ в день , попробуйте и убедитесь сами
http://vk.com/club63014972, здесь все подробно описано , начните зарабатывать уже сегодня.
если что-то непонятно , постучите в скайп rinat_flash , все объясню и покажу.
Не в сети
Профиль  
 Добавлено: 2015-09-12 15:04 (спустя 1 год 8 месяцев)
Top-releaser
Аватара пользователя
Стаж: 7 лет 4 месяца
Возраст: 38
Сообщений: 5347
Спасибок: 10059
Лайков: 2936
Классика жанра...
Не в сети
Профиль  
Начать новую темуОтветить на тему  [ Сообщений: 12 ] 
Вы не можете начинать темы
Вы не можете отвечать на сообщения
Вы не можете редактировать свои сообщения
Вы не можете удалять свои сообщения