Правила форума

Здесь находятся раздачи, на которых не было полного источника (сида) более месяца.
Вы можете вернуть релиз в соответствующий раздел, для этого напишите нам в специальной теме и встаньте на раздачу.
Новые релизы, повторяющие релизы в архиве, повторами не считаются.
Начать новую темуОтветить на тему  [ 1 сообщение ] 
Сообщения
 Добавлено: 2012-02-26 08:56
Инквизитор
Аватара пользователя
Стаж: 8 лет 8 месяцев
Сообщений: 3753
Спасибок: 28359
Лайков: 9
Изображение

Вот я какой / That's What I Am


Год выпуска: 2011
Страна: США
Слоган: «I'm a Teacher. I'm a Singer. I'm a Writer.»
Жанр: драма
Продолжительность: 01:41:22
Перевод: Оригинальный, Профессиональный (многоголосый, закадровый)
Режиссер: Майкл Павоне
Сценарий: Майкл Павоне
Продюсер: Нэнси Хирами, Тодд Льюис
Оператор: Кеннет Д. Зандер
Композитор: Джеймс Рэймонд
В ролях: Эд Харрис, Чейз Эллисон, Молли Паркер, Дэниэл Робак, Рэнди Ортон, Дэниэл Ельский, Alexander Walters, Миа Фрэмптон, Эми Мэдиган, Камилль Е. III Буржуа
Бюджет: $5 000 000
Описание: Этот фильм рассказывает о 13-летнем мальчике по имени Энди Никол, которого учитель английской литературы мистер Саймон ставит в пару с - Большим Джи, длинным, рыжеволосым одноклассником, главным объектом насмешек всей школы. По мере развития истории мистер Саймон оказывается в центре чудовищных слухов.
Изображение
MPAA: Изображение
Мировая премьера: 29 апреля 2011
Релиз, раздача группы: Изображение, Изображение
Качество: BDRip, 1080p
Формат: Matroska
Видео: AVC; 1920x1034 (1.857); 11397 Kbps; 23,976 fps; 0,239 bit/pixel
Аудио №1: Russian; AC3; 384 Kbps; CBR; 6 ch
Аудио №2: DTS; 1509 Kbps; CBR; 6 ch; 24 bit

Субтитры №1: Russian
Субтитры №2: English

M.I.
Общее
Уникальный идентификатор                 : 181743761482547251655465470288331664952 (0x88BA934338E8CAF385D5C587783DEE38)
Полное имя                               : E:\Фильмы\That's.What.I.Am.2011.1080p.BluRay.Rus.Eng.AC3.DTS.HDCLUB.mkv
Формат                                   : Matroska
Версия формата                           : Version 2
Размер файла                             : 9,60 Гбайт
Продолжительность                        : 1 ч. 41 м.
Общий поток                              : 13,6 Мбит/сек
Название фильма                          : Thats What I Am (2011) - Release for HDCLUB
Дата кодирования                         : UTC 2012-02-25 10:55:04
Программа кодирования                    : mkvmerge v5.3.0 ('I could have danced') built on Feb  9 2012 10:38:07
Библиотека кодирования                   : libebml v1.2.3 + libmatroska v1.3.0

Видео
Идентификатор                            : 1
Формат                                   : AVC
Формат/Информация                        : Advanced Video Codec
Профиль формата                          : High@L4.1
Параметр CABAC формата                   : Да
Параметр ReFrames формата                : 4 кадра
Идентификатор кодека                     : V_MPEG4/ISO/AVC
Продолжительность                        : 1 ч. 41 м.
Битрейт                                  : 11,7 Мбит/сек
Ширина                                   : 1920 пикселей
Высота                                   : 1034 пикселя
Соотношение сторон                       : 1,857
Частота кадров                           : 23,976 кадра/сек
Цветовое пространство                    : YUV
Субдискретизация насыщенности            : 4:2:0
Битовая глубина                          : 8 бит
Тип развёртки                            : Прогрессивная
Бит/(Пиксели*Кадры)                      : 0.245
Размер потока                            : 8,07 Гбайт (84%)
Заголовок                                : Release for HDCLUB
Библиотека кодирования                   : x264 core 115 r2008 4c552d8
Настройки программы                      : cabac=1 / ref=4 / deblock=1:-3:-3 / analyse=0x3:0x113 / me=umh / subme=10 / psy=1 / psy_rd=1.10:0.15 / mixed_ref=1 / me_range=32 / chroma_me=1 / trellis=2 / 8x8dct=1 / cqm=2 / deadzone=21,11 / fast_pskip=0 / chroma_qp_offset=-2 / threads=12 / sliced_threads=0 / nr=0 / decimate=1 / interlaced=0 / bluray_compat=0 / constrained_intra=0 / bframes=6 / b_pyramid=2 / b_adapt=2 / b_bias=0 / direct=3 / weightb=1 / open_gop=0 / weightp=2 / keyint=250 / keyint_min=23 / scenecut=40 / intra_refresh=0 / rc_lookahead=60 / rc=2pass / mbtree=1 / bitrate=11660 / ratetol=1.0 / qcomp=0.60 / qpmin=1 / qpmax=63 / qpstep=4 / cplxblur=20.0 / qblur=0.5 / vbv_maxrate=40000 / vbv_bufsize=30000 / nal_hrd=none / ip_ratio=1.40 / aq=1:0.80
Язык                                     : English
Default                                  : Нет
Forced                                   : Нет

Аудио #1
Идентификатор                            : 2
Формат                                   : AC-3
Формат/Информация                        : Audio Coding 3
Расширение режима                        : CM (complete main)
Идентификатор кодека                     : A_AC3
Продолжительность                        : 1 ч. 41 м.
Вид битрейта                             : Постоянный
Битрейт                                  : 384 Кбит/сек
Каналы                                   : 6 каналов
Расположение каналов                     : Front: L C R, Side: L R, LFE
Частота                                  : 48,0 КГц
Битовая глубина                          : 16 бит
Метод сжатия                             : С потерями
Задержка видео                           : 2 с. 700 мс.
Размер потока                            : 278 Мбайт (3%)
Заголовок                                : AC3 5.1 @ 384 kbps - Многоголосый закадровый (Лицензия)
Язык                                     : Russian
Default                                  : Да
Forced                                   : Нет

Аудио #2
Идентификатор                            : 3
Формат                                   : DTS
Формат/Информация                        : Digital Theater Systems
Идентификатор кодека                     : A_DTS
Продолжительность                        : 1 ч. 41 м.
Вид битрейта                             : Постоянный
Битрейт                                  : 1510 Кбит/сек
Каналы                                   : 6 каналов
Расположение каналов                     : Front: L C R, Side: L R, LFE
Частота                                  : 48,0 КГц
Битовая глубина                          : 24 бит
Метод сжатия                             : С потерями
Размер потока                            : 1,07 Гбайт (11%)
Заголовок                                : DTS 5.1 @ 1536 kbps
Язык                                     : English
Default                                  : Нет
Forced                                   : Нет

Текст #1
Идентификатор                            : 4
Формат                                   : UTF-8
Идентификатор кодека                     : S_TEXT/UTF8
Идентификатор кодека/Информация          : UTF-8 Plain Text
Заголовок                                : Voronine
Язык                                     : Russian
Default                                  : Да
Forced                                   : Нет

Текст #2
Идентификатор                            : 5
Формат                                   : UTF-8
Идентификатор кодека                     : S_TEXT/UTF8
Идентификатор кодека/Информация          : UTF-8 Plain Text
Язык                                     : English
Default                                  : Нет
Forced                                   : Нет
Свернуть
Скриншоты

Изображение
Изображение
Изображение
Изображение
Изображение
Изображение
Свернуть

Изображение
Не в сети
Профиль  
Начать новую темуОтветить на тему  [ 1 сообщение ] 
Вы не можете начинать темы
Вы не можете отвечать на сообщения
Вы не можете редактировать свои сообщения
Вы не можете удалять свои сообщения