Правила форума

Здесь находятся раздачи, на которых не было полного источника (сида) более месяца.
Вы можете вернуть релиз в соответствующий раздел, для этого напишите нам в специальной теме и встаньте на раздачу.
Новые релизы, повторяющие релизы в архиве, повторами не считаются.
Начать новую темуОтветить на тему  [ Сообщений: 8 ] 
Сообщения
 Добавлено: 2013-09-09 07:53
DVD Release Group
Аватара пользователя
Стаж: 7 лет 1 месяц
Сообщений: 3544
Спасибок: 246839
Лайков: 1017
Война миров Z

World War Z


Изображение


Год выпуска: 2013
Страна: США, Мальта
Жанр: Ужасы, фантастика, боевик, триллер, драма
Продолжительность: 02:03:03
Перевод: Профессиональный (полное дублирование)
Режиссер: Марк Форстер
В ролях: Брэд Питт, Мирей Инос, Джеймс Бэдж Дэйл, Мэттью Фокс, Даниэлла Кертеш, Луди Бокен, Фана Мокоэна, Дэвид Морc, Элайес Габел, Питер Капальди
Описание: Сотрудник ООН Гари Лейн наперегонки со временем пытается остановить заражение, способное полностью истребить человечество.
Изображение
Sample:
http://multi-up.com/901647
Качество: BDRip 720p
Формат: MKV
Видео кодек: H.264
Аудио кодек: AC3, DTS
Видео: 1280x536 23.98fps 4836kbps
Аудио:
Audio Rus: AC3 48kHz 6ch 448kbps
Audio Eng: DTS 48kHz 6ch 1510kbps
"MediaInfo"
Формат : Matroska
Версия формата : Version 2
Размер файла : 5,84 Гбайт
Продолжительность : 2 ч. 3 м.
Общий поток : 6791 Кбит/сек
Название фильма : Jubowo @ WiKi
Дата кодирования : UTC 2013-09-08 05:59:24
Программа кодирования : mkvmerge v5.7.0 ('The Whirlwind') built on Jul 8 2012 20:08:51
Библиотека кодирования : libebml v1.2.3 + libmatroska v1.3.0

Видео
Идентификатор : 1
Формат : AVC
Формат/Информация : Advanced Video Codec
Профиль формата : High@L4.1
Параметр CABAC формата : Да
Параметр ReFrames формата : 12 кадров
Режим смешивания : Header stripping
Идентификатор кодека : V_MPEG4/ISO/AVC
Продолжительность : 2 ч. 3 м.
Битрейт : 4836 Кбит/сек
Ширина : 1280 пикселей
Высота : 536 пикселей
Соотношение сторон : 2,40:1
Частота кадров : 23,976 кадра/сек
Цветовое пространство : YUV
Субдискретизация насыщенности : 4:2:0
Битовая глубина : 8 бит
Тип развёртки : Прогрессивная
Бит/(Пиксели*Кадры) : 0.294
Размер потока : 4,04 Гбайт (69%)
Библиотека кодирования : x264 core 129 r2245+704+36 8e61944 tMod+MixAQ [8-bit@4:2:0 X86_64]
Настройки программы : cabac=1 / ref=12 / deblock=1:-3:-3 / analyse=0x3:0x133 / me=umh / subme=11 / psy=1 / fade_compensate=0.00 / psy_rd=1.05:0.05 / mixed_ref=1 / me_range=32 / chroma_me=1 / trellis=2 / 8x8dct=1 / cqm=0 / deadzone=21,11 / fast_pskip=0 / chroma_qp_offset=-3 / threads=18 / lookahead_threads=3 / sliced_threads=0 / nr=0 / decimate=1 / interlaced=0 / bluray_compat=0 / constrained_intra=0 / fgo=0 / bframes=8 / b_pyramid=2 / b_adapt=2 / b_bias=0 / direct=3 / weightb=1 / open_gop=0 / weightp=2 / keyint=250 / keyint_min=23 / scenecut=40 / intra_refresh=0 / rc_lookahead=50 / rc=2pass / mbtree=1 / bitrate=4836 / ratetol=1.0 / qcomp=0.70 / qpmin=0 / qpmax=69 / qpstep=4 / cplxblur=20.0 / qblur=0.5 / ip_ratio=1.40 / aq=3 / aq-strength=0.90 / aq-sensitivity=10.00 / aq-ifactor=1.00 / aq-pfactor=1.00 / aq-bfactor=1.00 / aq2=0
Язык : English
Default : Да
Forced : Нет

Аудио #1
Идентификатор : 2
Формат : AC-3
Формат/Информация : Audio Coding 3
Расширение режима : CM (complete main)
Режим смешивания : Header stripping
Идентификатор кодека : A_AC3
Продолжительность : 2 ч. 3 м.
Вид битрейта : Постоянный
Битрейт : 448 Кбит/сек
Каналы : 6 каналов
Расположение каналов : Front: L C R, Side: L R, LFE
Частота : 48,0 КГц
Битовая глубина : 16 бит
Метод сжатия : С потерями
Размер потока : 394 Мбайт (7%)
Default : Да
Forced : Нет

Аудио #2
Идентификатор : 3
Формат : DTS
Формат/Информация : Digital Theater Systems
Режим смешивания : Header stripping
Идентификатор кодека : A_DTS
Продолжительность : 2 ч. 3 м.
Вид битрейта : Постоянный
Битрейт : 1510 Кбит/сек
Каналы : 6 каналов
Расположение каналов : Front: L C R, Side: L R, LFE
Частота : 48,0 КГц
Битовая глубина : 24 бит
Метод сжатия : С потерями
Размер потока : 1,30 Гбайт (22%)
Язык : English
Default : Нет
Forced : Нет

Меню
00:00:00.000 : en:00:00:00.000
00:05:05.179 : en:00:05:05.179
00:13:53.999 : en:00:13:53.999
00:22:43.195 : en:00:22:43.195
00:29:46.034 : en:00:29:46.034
00:35:21.494 : en:00:35:21.494
00:42:23.457 : en:00:42:23.457
00:52:37.946 : en:00:52:37.946
00:58:53.821 : en:00:58:53.821
01:07:18.868 : en:01:07:18.868
01:15:11.757 : en:01:15:11.757
01:24:02.037 : en:01:24:02.037
01:29:08.801 : en:01:29:08.801
01:34:50.518 : en:01:34:50.518
01:43:45.469 : en:01:43:45.469
01:52:17.981 : en:01:52:17.981
01:55:51.653 : en:01:55:51.653
Свернуть

"Скриншоты"
Изображение
Изображение
Изображение
Изображение
Свернуть

Раздача группы:
Изображение
 Александр1987 нравится это.
Не в сети
Профиль  
 Добавлено: 2013-09-09 13:57 (спустя 6 часов)
Аватара пользователя
Стаж: 8 лет 7 месяцев
Сообщений: 22
как звук народ стоит смотреть?
Не в сети
Профиль  
 Добавлено: 2013-09-09 14:14 (спустя 17 минут)
Аватара пользователя
Стаж: 8 лет
Сообщений: 1390
Спасибок: 39
Лайков: 63
Перевод: Профессиональный Любительский (полное дублирование) но пипл, который хавает - схавает...видео отличное....норм фильм, если абстрагироваться от ялегенды, 28 и тп... :co_ol:


Последний раз редактировалось ferguson 2013-09-10 15:05, всего редактировалось 1 раз.
Не в сети
Профиль  
 Добавлено: 2013-09-09 14:22 (спустя 7 минут)
Аватара пользователя
Стаж: 7 лет 9 месяцев
Сообщений: 6
Как звук??? Ни как из бочки????
Не в сети
Профиль  
 Добавлено: 2013-09-09 15:43 (спустя 1 час 21 минута)
Аватара пользователя
Стаж: 5 лет 5 месяцев
Возраст: 23
Сообщений: 484
Спасибок: 1403
Лайков: 1
звук хороший..Фильм просто бомба :bra_vo:
Не в сети
Профиль  
 Добавлено: 2013-09-09 22:10 (спустя 6 часов)
Стаж: 7 лет 4 месяца
Сообщений: 1
фильм очень понравился
Не в сети
Профиль  
 Добавлено: 2013-09-09 23:47 (спустя 1 час 37 минут)
Пользователь забанен
Аватара пользователя
Стаж: 8 лет 6 месяцев
Сообщений: 1998
Спасибок: 50
Лайков: 58
Ужасная херня
Не в сети
Профиль  
 Добавлено: 2013-09-13 19:56 (спустя 3 дня)
Модератор
Аватара пользователя
Стаж: 8 лет 11 месяцев
Сообщений: 516
Спасибок: 26888
Лайков: 1
viewtopic.php?f=1750&t=517380
Не в сети
Профиль  
Начать новую темуОтветить на тему  [ Сообщений: 8 ] 
Вы не можете начинать темы
Вы не можете отвечать на сообщения
Вы не можете редактировать свои сообщения
Вы не можете удалять свои сообщения