Правила форума

Здесь находятся раздачи, на которых не было полного источника (сида) более месяца.
Вы можете вернуть релиз в соответствующий раздел, для этого напишите нам в специальной теме и встаньте на раздачу.
Новые релизы, повторяющие релизы в архиве, повторами не считаются.
Начать новую темуОтветить на тему  [ Сообщений: 8 ] 
Сообщения
 Добавлено: 2013-09-09 05:23
Top-releaser
Аватара пользователя
Стаж: 8 лет 9 месяцев
Сообщений: 479
Спасибок: 20187
Лайков: 16
Изображение

Война миров Z

World War Z


«Remember Philly!»

Год выпуска: 2013
Страна: Изображение США; Мальта, Apparatus Productions, GK Films, Hemisphere Media Capital, Latina Pictures, Paramount Pictures, Plan B Entertainment, Skydance Productions
Жанр: Ужасы, фантастика, боевик, триллер, приключения
Продолжительность: 02:03:03
Перевод: Профессиональный (дублированный) [Чистый звук], Оригинал
Субтитры: Chinese, English
Примечание: UNRATED версия. Полный перевод!

Режиссёр: Марк Форстер / Marc Forster

В ролях: Брэд Питт, Мирей Инос, Джеймс Бэдж Дэйл, Мэттью Фокс, Даниэлла Кертеш, Луди Бокен, Фана Мокоэна, Дэвид Морc, Элайес Габел, Питер Капальди

Описание: Сотрудник ООН Джерри Лэйн наперегонки со временем пытается остановить заражение, способное полностью истребить человечество.


Качество: BDRip 1080p
Формат: MKV

Видео: AVC at 15,9 Мбит/сек, 1920 x 800 (2.400) at 23.976 fps

Аудио 1: AC-3 at 448 Кбит/сек, 6 канала(ов), 48,0 КГц [Дубляж] - Чистый звук
Аудио 2: DTS at 1510 Кбит/сек, 6 канала(ов), 48,0 КГц [Оригинал]
Раздача: Изображение

Изображение

Изображение
MediaInfo

Общее
Уникальный идентификатор : 227833337285435388785703447756172130836 (0xAB671ACB0C57011DB228367AA7D37A14)
Полное имя : C:\Users\Домашний\Desktop\Wojna.mirov.Z.2013.BDRip.1080p.[nntt].mkv
Формат : Matroska
Размер файла : 15,8 Гбайт
Продолжительность : 2 ч. 3 м.
Общий поток : 18,3 Мбит/сек
Дата кодирования : UTC 2013-09-08 06:52:15
Программа кодирования : mkvmerge v5.7.0 ('The Whirlwind') built on Jul 8 2012 20:08:51
Библиотека кодирования : libebml v1.2.3 + libmatroska v1.3.0

Видео
Идентификатор : 1
Формат : AVC
Формат/Информация : Advanced Video Codec
Профиль формата : High@L4.1
Параметр CABAC формата : Да
Параметр ReFrames формата : 5 кадры
Режим смешивания : Header stripping
Идентификатор кодека : V_MPEG4/ISO/AVC
Продолжительность : 2 ч. 3 м.
Битрейт : 15,9 Мбит/сек
Номинальный битрейт : 12,9 Мбит/сек
Ширина : 1920 пикс.
Высота : 800 пикс.
Соотношение сторон : 2,40:1
Частота кадров : 23,976 кадр/сек
Цветовое пространство : YUV
Подвыборка цветности : 4:2:0
Битовая глубина : 8 бит
Тип развёртки : Прогрессивная
Бит/(Пиксели*Кадры) : 0.433
Размер потока : 13,7 Гбайт (87%)
Библиотека кодирования : x264 core 136 r2348+704+51 d1baef6 tMod [8-bit@4:2:0 X86_64]
Настройки программы : cabac=1 / ref=5 / deblock=1:-3:-3 / analyse=0x3:0x113 / me=umh / subme=11 / psy=1 / fade_compensate=0.00 / psy_rd=1.10:0.00 / mixed_ref=1 / me_range=48 / chroma_me=1 / trellis=2 / 8x8dct=1 / cqm=0 / deadzone=21,11 / fast_pskip=0 / chroma_qp_offset=-2 / threads=18 / lookahead_threads=3 / sliced_threads=0 / nr=0 / decimate=0 / interlaced=0 / bluray_compat=0 / constrained_intra=0 / fgo=0 / bframes=8 / b_pyramid=2 / b_adapt=2 / b_bias=0 / direct=3 / weightb=1 / open_gop=0 / weightp=2 / keyint=240 / keyint_min=24 / scenecut=40 / intra_refresh=0 / rc=2pass / mbtree=0 / bitrate=12900 / ratetol=1.0 / qcomp=0.70 / qpmin=0:0:0 / qpmax=69:69:69 / qpstep=4 / cplxblur=20.0 / qblur=0.5 / ip_ratio=1.15 / pb_ratio=1.15 / aq=4:0.85 / aq-sensitivity=10.00 / aq-factor=1.00:1.00:1.00 / aq2=0 / aq3=0
Язык : English

Аудио #1
Идентификатор : 2
Формат : AC-3
Формат/Информация : Audio Coding 3
Расширение режима : CM (complete main)
Режим смешивания : Header stripping
Идентификатор кодека : A_AC3
Продолжительность : 2 ч. 3 м.
Вид битрейта : Постоянный
Битрейт : 448 Кбит/сек
Канал(ы) : 6 канала(ов)
Расположение каналов : Front: L C R, Side: L R, LFE
Частота : 48,0 КГц
Битовая глубина : 16 бит
Метод сжатия : С потерями
Размер потока : 394 Мбайт (2%)

Аудио #2
Идентификатор : 3
Формат : DTS
Формат/Информация : Digital Theater Systems
Профиль формата : MA / Core
Режим смешивания : Header stripping
Идентификатор кодека : A_DTS
Продолжительность : 2 ч. 3 м.
Вид битрейта : Переменный
Битрейт : 1606 Кбит/сек / 1510 Кбит/сек
Канал(ы) : 8 канала(ов) / 6 канала(ов)
Расположение каналов : Front: L C R, Side: L R, Back: L R, LFE / Front: L C R, Side: L R, LFE
Частота : 48,0 КГц
Битовая глубина : 24 бит
Метод сжатия : Без потерь / Lossy
Язык : English

Текст #1
Идентификатор : 4
Формат : ASS
Идентификатор кодека : S_TEXT/ASS
Идентификатор кодека/Информация : Advanced Sub Station Alpha
Метод сжатия : Без потерь
Язык : Chinese

Текст #2
Идентификатор : 5
Формат : PGS
Режим смешивания : zlib
Идентификатор кодека : S_HDMV/PGS
Идентификатор кодека/Информация : The same subtitle format used on BDs/HD-DVDs
Язык : English


Свернуть
Скриншоты

Изображение
Изображение
Изображение
Изображение
Изображение
Свернуть
_________________
Изображение
Изображение
Не в сети
Профиль  
 Добавлено: 2013-09-09 15:46 (спустя 10 часов)
Модератор
Аватара пользователя
Стаж: 6 лет 10 месяцев
Возраст: 33
Сообщений: 5908
Спасибок: 61239
Лайков: 3540
Золото разве не должно быть?
_________________
ИзображениеИзображение Изображение
Изображение
Не в сети
Профиль  
 Добавлено: 2013-09-09 16:08 (спустя 22 минуты)
Аватара пользователя
Стаж: 3 года 7 месяцев
Возраст: 36
Сообщений: 212
Спасибок: 1247
Когда лицензия? :ne_znayu:
Не в сети
Профиль  
 Добавлено: 2013-09-09 16:50 (спустя 42 минуты)
Аватара пользователя
Стаж: 7 лет 8 месяцев
Возраст: 24
Сообщений: 299
Спасибок: 71
Лайков: 2
когда 3д?
Не в сети
Профиль  
 Добавлено: 2013-09-09 17:52 (спустя 1 час 1 минута)
Аватара пользователя
Стаж: 9 лет
Сообщений: 167
Спасибок: 38
когда выставите в полном фул ашди
Не в сети
Профиль  
 Добавлено: 2013-09-09 19:59 (спустя 2 часа 6 минут)
Top-releaser
Аватара пользователя
Стаж: 8 лет 9 месяцев
Сообщений: 479
Спасибок: 20187
Лайков: 16

dilmah:

когда выставите в полном фул ашди
Качай! http://nnportal.org/portal/hd-dvd-3d-filmi-f1743/voyna-mirov-z-world-war-z-mark-forster-marc-forster-chistiy-zvuk-t517105.html
_________________
Изображение
Изображение
Не в сети
Профиль  
 Добавлено: 2013-09-10 23:22 (спустя 1 день 3 часа)
Аватара пользователя
Стаж: 8 лет 7 месяцев
Возраст: 55
Сообщений: 264
Лайков: 19
...Такие скопления людей я видел только три раза в жизни: во время студенческих волнений в Гринвич-Вилидж, на фресках Сикейроса и в фильмах Бондарчука..." :sh_ok:
Не в сети
Профиль  
 Добавлено: 2013-09-13 19:56 (спустя 2 дня 20 часов)
Модератор
Аватара пользователя
Стаж: 8 лет 11 месяцев
Сообщений: 516
Спасибок: 26888
Лайков: 1
viewtopic.php?f=1750&t=517380
Не в сети
Профиль  
Начать новую темуОтветить на тему  [ Сообщений: 8 ] 
Вы не можете начинать темы
Вы не можете отвечать на сообщения
Вы не можете редактировать свои сообщения
Вы не можете удалять свои сообщения