Правила форума

Здесь находятся раздачи, на которых не было полного источника (сида) более месяца.
Вы можете вернуть релиз в соответствующий раздел, для этого напишите нам в специальной теме и встаньте на раздачу.
Новые релизы, повторяющие релизы в архиве, повторами не считаются.
Начать новую темуОтветить на тему  [ Сообщений: 5 ] 
Сообщения
 Добавлено: 2013-09-09 19:57
Top-releaser
Аватара пользователя
Стаж: 8 лет 9 месяцев
Сообщений: 479
Спасибок: 20188
Лайков: 16
Изображение

Война миров Z

Изображение


«Remember Philly!»

Год выпуска: 2013
Страна: Изображение США; Мальта, Apparatus Productions, GK Films, Hemisphere Media Capital, Latina Pictures, Изображение Paramount Pictures, Plan B Entertainment, Skydance Productions
Жанр: Ужасы, фантастика, боевик, триллер, приключения
Продолжительность: 02:03:03
Перевод: Профессиональный (дублированный) [Чистый звук], Оригинал
Субтитры: Русские, английские

Режиссёр: Марк Форстер / Marc Forster

В ролях: Брэд Питт, Мирей Инос, Джеймс Бэдж Дэйл, Мэттью Фокс, Даниэлла Кертеш, Луди Бокен, Фана Мокоэна, Дэвид Морc, Элайес Габел, Питер Капальди

Описание: Сотрудник ООН Джерри Лэйн наперегонки со временем пытается остановить заражение, способное полностью истребить человечество.


Качество: Blu-Ray Remux 1080p
Формат: MKV

Видео: AVC at 32,1 Мбит/сек, 1920 x 1080 (1.778) at 23.976 fps

Аудио 1: AC-3 at 448 Кбит/сек, 6 канала(ов), 48,0 КГц [Дубляж] - Чистый звук
Аудио 2: DTS-HD МА, 8 ch, 4991 Кбит/с [Оригинал]
Раздача: Изображение

Изображение

Изображение
MediaInfo

Общее
Уникальный идентификатор : 194536578831728053827303629422124707707 (0x925A61DAD00F2B1F9DF3411A1045AF7B)
Полное имя : C:\Users\Домашний\Desktop\Vojna.mirov-Z.2013.BluRay-Remux(1080p)[nntt].mkv
Формат : Matroska
Размер файла : 30,0 Гбайт
Продолжительность : 2 ч. 3 м.
Общий поток : 34,9 Мбит/сек
Название фильма : Война миров Z (Расширенная версия). 2013. Rip by: ollan
Дата кодирования : UTC 2013-09-08 23:18:25
Программа кодирования : mkvmerge v5.6.0 ('Kenya Kane') built on May 27 2012 16:44:04
Библиотека кодирования : libebml v1.2.3 + libmatroska v1.3.0

Видео
Идентификатор : 1
Формат : AVC
Формат/Информация : Advanced Video Codec
Профиль формата : High@L4.1
Параметр CABAC формата : Да
Параметр ReFrames формата : 4 кадры
Идентификатор кодека : V_MPEG4/ISO/AVC
Продолжительность : 2 ч. 3 м.
Вид битрейта : Переменный
Битрейт : 32,1 Мбит/сек
Максимальный битрейт : 34,0 Мбит/сек
Ширина : 1920 пикс.
Высота : 1080 пикс.
Соотношение сторон : 16:9
Частота кадров : 23,976 кадр/сек
Цветовое пространство : YUV
Подвыборка цветности : 4:2:0
Битовая глубина : 8 бит
Тип развёртки : Прогрессивная
Бит/(Пиксели*Кадры) : 0.646
Размер потока : 27,6 Гбайт (92%)
Язык : English

Аудио #1
Идентификатор : 2
Формат : AC-3
Формат/Информация : Audio Coding 3
Расширение режима : CM (complete main)
Идентификатор кодека : A_AC3
Продолжительность : 2 ч. 3 м.
Вид битрейта : Постоянный
Битрейт : 448 Кбит/сек
Канал(ы) : 6 канала(ов)
Расположение каналов : Front: L C R, Side: L R, LFE
Частота : 48,0 КГц
Битовая глубина : 16 бит
Метод сжатия : С потерями
Размер потока : 394 Мбайт (1%)
Заголовок : Дублированный (Чистый звук)
Язык : Russian

Аудио #2
Идентификатор : 3
Формат : DTS
Формат/Информация : Digital Theater Systems
Профиль формата : MA / Core
Идентификатор кодека : A_DTS
Продолжительность : 2 ч. 3 м.
Вид битрейта : Переменный
Битрейт : 1606 Кбит/сек / 1510 Кбит/сек
Канал(ы) : 8 канала(ов) / 6 канала(ов)
Расположение каналов : Front: L C R, Side: L R, Back: L R, LFE / Front: L C R, Side: L R, LFE
Частота : 48,0 КГц
Битовая глубина : 24 бит
Метод сжатия : Без потерь / Lossy
Язык : English

Текст #1
Идентификатор : 4
Формат : UTF-8
Идентификатор кодека : S_TEXT/UTF8
Идентификатор кодека/Информация : UTF-8 Plain Text
Язык : Russian

Текст #2
Идентификатор : 5
Формат : UTF-8
Идентификатор кодека : S_TEXT/UTF8
Идентификатор кодека/Информация : UTF-8 Plain Text
Язык : English

Меню
00:00:00.000 : :Chapter 01
00:05:05.179 : :Chapter 02
00:13:53.999 : :Chapter 03
00:22:43.195 : :Chapter 04
00:29:46.034 : :Chapter 05
00:35:21.494 : :Chapter 06
00:42:23.457 : :Chapter 07
00:52:37.946 : :Chapter 08
00:58:53.821 : :Chapter 09
01:07:18.868 : :Chapter 10
01:15:11.757 : :Chapter 11
01:24:02.037 : :Chapter 12
01:29:08.801 : :Chapter 13
01:34:50.518 : :Chapter 14
01:43:45.469 : :Chapter 15
01:52:17.981 : :Chapter 16
01:55:51.653 : :Chapter 17


Свернуть
Скриншоты

Изображение
Изображение
Изображение
Изображение
Изображение
Свернуть
_________________
Изображение
Изображение
 Михно нравится это.
Не в сети
Профиль  
 Добавлено: 2013-09-11 19:50 (спустя 1 день 23 часа)
Аватара пользователя
Стаж: 6 лет 5 месяцев
Сообщений: 19961
Спасибок: 721
Лайков: 461
Постер, случаем не из батлы?.. ;;-)))
Cкрытый текст
Изображение
Свернуть
_________________
It was I'am ... :jn_pu_sk:
Медали и Ордена
ИзображениеИзображение
Свернуть
Не в сети
Профиль  
 Добавлено: 2013-09-12 23:20 (спустя 1 день 3 часа)
Стаж: 7 лет 3 месяца
Сообщений: 5
перевод как в кинотеатрах был???
Не в сети
Профиль  
 Добавлено: 2013-09-13 18:00 (спустя 18 часов)
Аватара пользователя
Стаж: 4 года 4 месяца
Возраст: 33
Сообщений: 178
Лайков: 3
спс!! посмотрим! :bra_vo:
Не в сети
Профиль  
 Добавлено: 2013-09-13 19:56 (спустя 1 час 55 минут)
Модератор
Аватара пользователя
Стаж: 8 лет 11 месяцев
Сообщений: 516
Спасибок: 26888
Лайков: 1
viewtopic.php?f=1750&t=517380
Не в сети
Профиль  
Начать новую темуОтветить на тему  [ Сообщений: 5 ] 
Вы не можете начинать темы
Вы не можете отвечать на сообщения
Вы не можете редактировать свои сообщения
Вы не можете удалять свои сообщения