Правила форума

Здесь находятся раздачи, на которых не было полного источника (сида) более месяца.
Вы можете вернуть релиз в соответствующий раздел, для этого напишите нам в специальной теме и встаньте на раздачу.
Новые релизы, повторяющие релизы в архиве, повторами не считаются.
Начать новую темуОтветить на тему  [ 1 сообщение ] 
Сообщения
 Добавлено: 2013-01-07 18:13
Top-releaser
Аватара пользователя
Стаж: 6 лет 7 месяцев
Сообщений: 2078
Спасибок: 3230
Лайков: 9
Изображение

Воздушная тюрьма
Con Air


Год выпуска: 1997
Страна: США
Слоган: «Они были смертельно опасны на земле. Теперь у них появились крылья.»
Жанр: боевик, триллер, криминал
Продолжительность: 01:55:26
Перевод: Профессиональный (полное дублирование)
Режиссер: Саймон Уэст
Сценарий: Скотт Розенберг
Продюсер: Джерри Брукхаймер, Кенни Бейтс, Линн Бигелоу, Питер Богарт, Джонатан Хенсли
Оператор: Дэвид Тэттерсолл
Композитор: Марк Манчина, Тревор Рэбин
В ролях: Николас Кейдж, Джон Кьюсак, Джон Малкович, Винг Реймз, Майкелти Уильямсон, Рейчел Тикотин
Бюджет: $75 000 000
Сборы в США: $101 117 573
Сборы в мире: $224 012 234
Мировая премьера: 2 июня 1997
Релиз на DVD: 18 июня 2009, «Уолт Дисней Компани СНГ»
Релиз на Blu-ray: 23 ноября 2010, «Уолт Дисней Компани СНГ»
Описание: «Воздушная тюрьма» - транспортное подразделение полиции США, перевозящее особо опасных преступников. Одним из этих рейсов возвращается домой Кэмерон По, освобожденный из тюрьмы после 8 лет заключения. Он так долго ждал этого и ничто не должно остановить его на пути домой.
Внезапно Кэмерон оказывается свидетелем захвата самолета, организованного опаснейшим рецидивистом Сайрусом «Вирусом» Гриссомом. Он решает взять ситуацию в свои руки и помочь полиции, ведь для него это - единственный шанс попасть домой. Только один человек на земле готов поверить ему - шериф Винс Ларкин, который вынужден преодолевать невероятные трудности, чтобы предотвратить бегство преступников и не позволить своим ретивым начальникам взорвать самолет вместе со всеми пассажирами.

Раздача группы: Изображение

Изображение User Rating: 7.642 (27 932)
Изображение User Rating: 6.70 (140 310)
MPAA: R - Лицам до 17 лет обязательно присутствие взрослого
Качество: BDRip, 1080p
Формат: Matroska
Видео: AVC; 1920x816 (2.35:1); 12713 Kbps; 23,976 fps; 0,338 bit/pixel
Аудио №1: Russian; DTS; 1509 Kbps; CBR; 6 ch; 24 bit
Аудио №2: Russian; DTS; 1509 Kbps; CBR; 6 ch; 24 bit
Аудио №3: Russian; AC3; 192 Kbps; CBR; 2 ch
Аудио №4: English; DTS; 1509 Kbps; CBR; 6 ch; 24 bit
Аудио №5: Russian; AC3; 448 Kbps; CBR; 6 ch - Гаврилов (отдельным файлом)
Аудио №6: Russian; DTS; 1510 Kbps; CBR; 6 ch - Живов (отдельным файлом)

Субтитры: Russian, English

MediaInfo
Общее
Уникальный идентификатор : 172733543738207409682249021182582854638 (0x81F3453ACE419A5D8910A128966E13EE)
Полное имя : Z:\WWW\TR-Downloads\1080p.Con.Air.1997.CEE[R.G.Daredevil]\1080p.Con.Air.1997.CEE.[BDRip.H264.DTSRus.DTSRus.AC3Rus.DTSEng].mkv
Формат : Matroska
Версия формата : Version 2
Размер файла : 14,3 Гбайт
Продолжительность : 1 ч. 55 м.
Общий поток : 17,7 Мбит/сек
Название фильма : -=DKom=-
Дата кодирования : UTC 2010-09-27 02:56:52
Программа кодирования : mkvmerge v4.3.0 ('Escape from the Island') сборка от Sep 5 2010 10:30:51
Библиотека кодирования : libebml v1.0.0 + libmatroska v1.0.0

Видео
Идентификатор : 1
Формат : AVC
Формат/Информация : Advanced Video Codec
Профиль формата : High@L4.1
Параметр CABAC формата : Да
Параметр ReFrames формата : 5 кадров
Режим смешивания : Header stripping
Идентификатор кодека : V_MPEG4/ISO/AVC
Продолжительность : 1 ч. 55 м.
Битрейт : 12,7 Мбит/сек
Ширина : 1920 пикселей
Высота : 816 пикселей
Соотношение сторон : 2,35:1
Частота кадров : 23,976 кадра/сек
Цветовое пространство : YUV
Субдискретизация насыщенности : 4:2:0
Битовая глубина : 8 бит
Тип развёртки : Прогрессивная
Бит/(Пиксели*Кадры) : 0.338
Размер потока : 10,2 Гбайт (71%)
Заголовок : Con Air, 1997, CEE, 1080p, BDRip, h264
Библиотека кодирования : x264 core 104 r1703 cd21d05
Настройки программы : cabac=1 / ref=5 / deblock=1:-3:-3 / analyse=0x3:0x133 / me=umh / subme=10 / psy=1 / psy_rd=1.05:0.05 / mixed_ref=1 / me_range=64 / chroma_me=1 / trellis=2 / 8x8dct=1 / cqm=0 / deadzone=21,11 / fast_pskip=0 / chroma_qp_offset=-3 / threads=6 / sliced_threads=0 / nr=0 / decimate=1 / interlaced=0 / constrained_intra=0 / bframes=7 / b_pyramid=2 / b_adapt=2 / b_bias=0 / direct=3 / weightb=1 / open_gop=0 / weightp=2 / keyint=250 / keyint_min=23 / scenecut=40 / intra_refresh=0 / rc_lookahead=70 / rc=2pass / mbtree=1 / bitrate=12713 / ratetol=2.0 / qcomp=0.72 / qpmin=10 / qpmax=51 / qpstep=4 / cplxblur=20.0 / qblur=0.5 / vbv_maxrate=50000 / vbv_bufsize=50000 / ip_ratio=1.40 / aq=1:1.00 / nal_hrd=none
Язык : English
Default : Да
Forced : Нет

Аудио #1
Идентификатор : 2
Формат : DTS
Формат/Информация : Digital Theater Systems
Режим смешивания : Header stripping
Идентификатор кодека : A_DTS
Продолжительность : 1 ч. 55 м.
Вид битрейта : Постоянный
Битрейт : 1510 Кбит/сек
Каналы : 6 каналов
Расположение каналов : Front: L C R, Side: L R, LFE
Частота : 48,0 КГц
Битовая глубина : 24 бит
Метод сжатия : С потерями
Размер потока : 1,22 Гбайт (9%)
Заголовок : DTS 5.1 @ 48KHz 1536 Kbps
Язык : Russian
Default : Да
Forced : Нет

Аудио #2
Идентификатор : 3
Формат : DTS
Формат/Информация : Digital Theater Systems
Режим смешивания : Header stripping
Идентификатор кодека : A_DTS
Продолжительность : 1 ч. 55 м.
Вид битрейта : Постоянный
Битрейт : 1510 Кбит/сек
Каналы : 6 каналов
Расположение каналов : Front: L C R, Side: L R, LFE
Частота : 48,0 КГц
Битовая глубина : 24 бит
Метод сжатия : С потерями
Размер потока : 1,22 Гбайт (9%)
Заголовок : DTS 5.1 @ 48KHz 1536 Kbps (MVO, Гланц-Королёва)
Язык : Russian
Default : Нет
Forced : Нет

Аудио #3
Идентификатор : 4
Формат : AC-3
Формат/Информация : Audio Coding 3
Расширение режима : CM (complete main)
Параметр Endianness формата : Big
Режим смешивания : Header stripping
Идентификатор кодека : A_AC3
Продолжительность : 1 ч. 55 м.
Вид битрейта : Постоянный
Битрейт : 192 Кбит/сек
Каналы : 2 канала
Расположение каналов : Front: L R
Частота : 48,0 КГц
Битовая глубина : 16 бит
Метод сжатия : С потерями
Размер потока : 159 Мбайт (1%)
Заголовок : AC3 2.0 @ 48KHz 192 Kbps (DUB)
Язык : Russian
Default : Нет
Forced : Нет

Аудио #4
Идентификатор : 5
Формат : DTS
Формат/Информация : Digital Theater Systems
Режим смешивания : Header stripping
Идентификатор кодека : A_DTS
Продолжительность : 1 ч. 55 м.
Вид битрейта : Постоянный
Битрейт : 1510 Кбит/сек
Каналы : 6 каналов
Расположение каналов : Front: L C R, Side: L R, LFE
Частота : 48,0 КГц
Битовая глубина : 24 бит
Метод сжатия : С потерями
Размер потока : 1,22 Гбайт (9%)
Заголовок : DTS 5.1 @ 48KHz 1536 Kbps
Язык : English
Default : Нет
Forced : Нет

Текст #1
Идентификатор : 6
Формат : UTF-8
Идентификатор кодека : S_TEXT/UTF8
Идентификатор кодека/Информация : UTF-8 Plain Text
Заголовок : (Гланц-Королёва)
Язык : Russian
Default : Нет
Forced : Нет

Текст #2
Идентификатор : 7
Формат : UTF-8
Идентификатор кодека : S_TEXT/UTF8
Идентификатор кодека/Информация : UTF-8 Plain Text
Язык : English
Default : Нет
Forced : Нет
Свернуть
Скриншоты

Изображение
Изображение
Изображение
Изображение
Изображение
Изображение
Свернуть
Не в сети
Профиль  
Начать новую темуОтветить на тему  [ 1 сообщение ] 
Вы не можете начинать темы
Вы не можете отвечать на сообщения
Вы не можете редактировать свои сообщения
Вы не можете удалять свои сообщения