Правила форума

Здесь находятся раздачи, на которых не было полного источника (сида) более месяца.
Вы можете вернуть релиз в соответствующий раздел, для этого напишите нам в специальной теме и встаньте на раздачу.
Новые релизы, повторяющие релизы в архиве, повторами не считаются.
Начать новую темуОтветить на тему  [ 1 сообщение ] 
Сообщения
 Добавлено: 2012-03-31 21:41
Руководитель релиз-группы
Аватара пользователя
Стаж: 7 лет 5 месяцев
Возраст: 31
Сообщений: 3406
Спасибок: 46729
Лайков: 5
Изображение

Возмездие Эрпа
Wyatt Earp's Revenge


Год выпуска: 2012
Страна: США
Жанр: драма
Продолжительность: 01:28:51
Перевод: Профессиональный (многоголосый, закадровый)
Режиссер: Майкл Фейфер
Сценарий: Даррен Б. Шеперд, Джеффри Шенк, Питер Салливан
Продюсер: Бэрри Барнхолц, Майкл Фейфер, Джеффри Шенк
Оператор: Роберто Шайн
Композитор: Андрес Болтон
В ролях: Вэл Килмер, Шоун Робертс, Мэтт Даллас, Дэниэл Буко, Скотт Уайт, Стивен Грейхм, Levi Fiehler, Трэйси Д. Эдкинс, Diana DeGarmo, Брайан Гро...
Бюджет: $3 000 000
Описание: Экшен - вестерн, основанный на реальной истории легенды Дикого Запада - стража порядка Уайетта Эрпа, который сталкивается с трагической гибелью своей возлюбленной Доры и решает за нее отомстить.
Вместе со своими верными друзьями - прославленными Бэтом Мастерсоном, Чарли Бассеттом, Биллом Тилгменом и Доком Холлидеем - Эрп пускается в погоню за безжалостными братьями Кенеди, чинящими ради забавы расправу над невинными людьми на своем пути от Додж - Сити к Мексике.
Находясь под протекцией влиятельного отца, кровожадные братья не сомневаются, что останутся безнаказанными, однако они недооценивают своего врага и его жажду мести.
Изображение
MPAA: Изображение
Релиз: Изображение Раздача группы: Изображение
Качество: DVD5 (сжатый)
Формат: DVD Video
Видео: MPEG2; PAL 16:9 (720x576)
Аудио #1: Dolby AC3, 6 ch, 384 Kbps русский
Аудио #2: Dolby AC3, 6 ch, 448 Kbps английский
Аудио #3: Dolby AC3, 6 ch, 384 Kbps чешский
Аудио #4: Dolby AC3, 6 ch, 384 Kbps польский
Субтитры: английский, арабский, болгарский, греческий, хинди, польский, португальский, румынский, словацкий, турецкий
Дополнительная информация :
Исходник : DVD9 (4.44 Гб) [лицензия, PAL 16:9]
Убрано : реклама, заставки, предупреждения
Сжатие фильма : нет
Изображение
использовались программы
    DVDRemakePro
    Работоспособность проверена на софтовом плеере Windows Media и бытовом LG
Свернуть
DVDInfo
    Title: Vozmezdie.Erpa_2012_DVD5.[R.G.Daredevil]
    Size: 4.37 Gb ( 4 583 794,00 KBytes ) - DVD-5
    Enabled regions: 1, 2, 3, 4, 5, 6, 7, 8

    VTS_01 :
    Play Length: 00:00:00
    Video: PAL 4:3 (720x576) VBR

    VTS_02 :
    Play Length: 00:00:00+00:00:00+00:00:00+00:00:00+00:00:00+00:00:00
    Video: PAL 16:9 (720x576) VBR, Auto Letterboxed

    VTS_03 :
    Play Length: 00:00:00+00:00:00+00:00:00+00:00:00+00:00:00+00:00:00
    Video: PAL 4:3 (720x576) VBR

    VTS_04 :
    Play Length: 01:28:51+00:00:00
    Video: PAL 16:9 (720x576) VBR, Auto Letterboxed
    Audio:
    English (Dolby AC3, 6 ch)
    Czech(Ceske) (Dolby AC3, 6 ch)
    Polish (Dolby AC3, 6 ch)
    Russian (Dolby AC3, 6 ch)
    Subtitles:
    English
    Arabic
    Bulgarian
    Czech(Ceske)
    Greek
    Hindi
    Polish
    Portugues
    Romanian
    Slovak
    Turkish
    Russian

    VTS_05 :
    Play Length: 00:00:00
    Video: PAL 16:9 (720x576) VBR, Auto Pan&Scan
    Audio:
    Not specified (Dolby AC3, 2 ch)
    Subtitles:
    Not specified

    VTS_06 :
    Play Length: 00:00:00
    Video: PAL 16:9 (720x576) VBR, Auto Pan&Scan
    Audio:
    Not specified (Dolby AC3, 6 ch)

    VTS_07 :
    Play Length: 00:00:00
    Video: PAL 16:9 (720x576) VBR, Auto Pan&Scan
    Audio:
    Not specified (Dolby AC3, 2 ch)

    VTS_08 :
    Play Length: 00:00:00
    Video: PAL 16:9 (720x576) VBR, Auto Letterboxed
    Audio:
    English (Dolby AC3, 2 ch)

    VTS_09 :
    Play Length: 00:00:00
    Video: PAL 16:9 (720x576) VBR, Auto Pan&Scan
    Audio:
    English (Dolby AC3, 6 ch)

    VTS_10 :
    Play Length: 00:00:00
    Video: PAL 16:9 (720x576) VBR, Auto Pan&Scan

    VTS_11 :
    Play Length: 00:00:00+{00:00:00}+00:00:00+{00:00:00}+{00:00:00}+{00:00:00}+{00:00:00}+{00:00:00}+{00:00:00}+{00:00:00}+{00:00:00}+{00:00:00}+{00:00:00}+{00:00:00}+{00:00:00}+{00:00:00}+00:00:00+{00:00:00}+{00:00:00}+{00:00:00}+{00:00:00}+{00:00:00}+{00:00:00}+{00:00:00}+{00:00:00}+{00:00:00}+{00:00:00}+{00:00:00}+00:00:00+00:00:00+{00:00:00}+00:00:00+{00:00:00}+00:00:00+{00:00:00}+00:00:00+{00:00:00}+00:00:00+{00:00:00}+{00:00:00}+{00:00:00}+{00:00:00}+00:00:00+00:00:00+{00:00:00}+{00:00:00}+00:00:00+00:00:00+{00:00:00}+{00:00:00}+00:00:00+{00:00:00}+{00:00:00}+{00:00:00}+{00:00:00}+{00:00:00}+00:00:00+00:00:00+00:00:00+{00:00:00}+00:00:00+{00:00:00}+00:00:00+{00:00:00}+00:00:00+{00:00:00}+00:00:00+{00:00:00}+{00:00:00}+{00:00:00}+{00:00:00}+00:00:00+00:00:00+{00:00:00}+{00:00:00}+00:00:00+00:00:00+{00:00:00}+00:00:00
    Video: PAL 16:9 (720x576) VBR, Auto Letterboxed
    Audio:
    Not specified (Dolby AC3, 2 ch)

    VTS_12 :
    Play Length: 00:00:00+00:00:00+{00:00:00}+{00:00:00}
    Video: PAL 16:9 (720x576) VBR, Auto Letterboxed

    VTS_13 :
    Play Length: 00:00:00
    Video: PAL 16:9 (720x576) VBR, Auto Pan&Scan

    VTS_14 :
    Play Length: 00:00:00
    Video: PAL 4:3 (720x576) VBR

    VTS_15 :
    Play Length: 00:03:36+00:00:00+00:00:00+00:00:00+00:00:00+00:00:00
    Video: PAL 16:9 (720x576) VBR, Auto Letterboxed
    Audio:
    English (Dolby AC3, 2 ch)
    Subtitles:
    English

    VTS_16 :
    Play Length: 00:00:00+00:00:00+00:00:00+00:00:00+00:00:00+00:00:00
    Video: PAL 4:3 (720x576) VBR

    VTS_17 :
    Play Length: 00:00:00+00:00:00+{00:00:00}+{00:00:00}
    Video: PAL 4:3 (720x576) VBR
    Audio:
    Not specified (Dolby AC3, 2 ch)
Свернуть
mediainfo
    Формат : MPEG-PS
    Размер файла : 1024 Мбайт
    Продолжительность : 21 м.
    Режим общего битрейта : Переменный
    Общий поток : 6746 Кбит/сек

    Видео
    Идентификатор : 224 (0xE0)
    Формат : MPEG Video
    Версия формата : Version 2
    Профиль формата : Main@Main
    Параметр BVOP формата : Да
    Параметр матрицы формата : Выборочная
    Продолжительность : 21 м.
    Вид битрейта : Переменный
    Битрейт : 5012 Кбит/сек
    Ширина : 720 пикселей
    Высота : 576 пикселей
    Соотношение сторон : 16:9
    Частота кадров : 25,000 кадров/сек
    Стандарт вещания : PAL
    Цветовое пространство : YUV
    Субдискретизация насыщенности : 4:2:0
    Битовая глубина : 8 бит
    Тип развёртки : Прогрессивная
    Метод сжатия : С потерями
    Бит/(Пиксели*Кадры) : 0.483
    Размер потока : 761 Мбайт (74%)

    Аудио #1
    Идентификатор : 189 (0xBD)-128 (0x80)
    Формат : AC-3
    Формат/Информация : Audio Coding 3
    Расширение режима : CM (complete main)
    Режим смешивания : DVD-Video
    Продолжительность : 21 м.
    Вид битрейта : Постоянный
    Битрейт : 448 Кбит/сек
    Каналы : 6 каналов
    Расположение каналов : Front: L C R, Side: L R, LFE
    Частота : 48,0 КГц
    Битовая глубина : 16 бит
    Метод сжатия : С потерями
    Размер потока : 68,0 Мбайт (7%)

    Аудио #2
    Идентификатор : 189 (0xBD)-129 (0x81)
    Формат : AC-3
    Формат/Информация : Audio Coding 3
    Расширение режима : CM (complete main)
    Режим смешивания : DVD-Video
    Продолжительность : 21 м.
    Вид битрейта : Постоянный
    Битрейт : 384 Кбит/сек
    Каналы : 6 каналов
    Расположение каналов : Front: L C R, Side: L R, LFE
    Частота : 48,0 КГц
    Битовая глубина : 16 бит
    Метод сжатия : С потерями
    Размер потока : 58,3 Мбайт (6%)

    Аудио #3
    Идентификатор : 189 (0xBD)-130 (0x82)
    Формат : AC-3
    Формат/Информация : Audio Coding 3
    Расширение режима : CM (complete main)
    Режим смешивания : DVD-Video
    Продолжительность : 21 м.
    Вид битрейта : Постоянный
    Битрейт : 384 Кбит/сек
    Каналы : 6 каналов
    Расположение каналов : Front: L C R, Side: L R, LFE
    Частота : 48,0 КГц
    Битовая глубина : 16 бит
    Метод сжатия : С потерями
    Размер потока : 58,3 Мбайт (6%)

    Аудио #4
    Идентификатор : 189 (0xBD)-131 (0x83)
    Формат : AC-3
    Формат/Информация : Audio Coding 3
    Расширение режима : CM (complete main)
    Режим смешивания : DVD-Video
    Продолжительность : 21 м.
    Вид битрейта : Постоянный
    Битрейт : 384 Кбит/сек
    Каналы : 6 каналов
    Расположение каналов : Front: L C R, Side: L R, LFE
    Частота : 48,0 КГц
    Битовая глубина : 16 бит
    Метод сжатия : С потерями
    Размер потока : 58,3 Мбайт (6%)

    Меню
Свернуть
Скриншоты

меню
Изображение
Изображение
Изображение
Изображение
Изображение
Свернуть
Изображение
Изображение
Изображение
Изображение
Свернуть
Не в сети
Профиль  
Начать новую темуОтветить на тему  [ 1 сообщение ] 
Вы не можете начинать темы
Вы не можете отвечать на сообщения
Вы не можете редактировать свои сообщения
Вы не можете удалять свои сообщения