Правила форума

Здесь находятся раздачи, на которых не было полного источника (сида) более месяца.
Вы можете вернуть релиз в соответствующий раздел, для этого напишите нам в специальной теме и встаньте на раздачу.
Новые релизы, повторяющие релизы в архиве, повторами не считаются.
Начать новую темуОтветить на тему  [ Сообщений: 2 ] 
Сообщения
 Добавлено: 2011-03-13 16:13
Модератор релиз-группы
Аватара пользователя
Стаж: 9 лет 1 месяц
Возраст: 97
Сообщений: 11660
Спасибок: 6533
Лайков: 269
Всё путём / Everybody's Fine

Изображение


Год выпуска: 2010
Страна: США, Италия
Слоган: «Frank wanted to holidays to be picture perfect. What he got was family.»
Жанр: Драма
Продолжительность: 1:40:24
Перевод: Профессиональный (дубляж)
Дублеры: Геннадий Богачёв,Станислав Концевич,Виктор Костецкий
Оригинальная звуковая дорожка
Субтитры: русские, английские

Режиссёр: Кирк Джонс / Kirk Jones
В ролях: Роберт Де Ниро, Дрю Бэрримор, Кейт Бекинсейл, Сэм Рокуэлл, Люсиан Майсел, Дамиан Янг, Джеймс Фрейн, Мелисса Лео, Кэтрин Монниг, Брендан Секстон III
Описание: Овдовевший пенсионер осознает, что долгие годы именно его жена связывала воедино их большое семейство. Чтобы самому поближе узнать, как живут его дети, он отправляется навестить их — и во время импровизированного путешествия по домам своих отпрысков открывает для себя много неожиданного…
Изображение 7.739 голосов: 5 426

Изображение

Качество: BDRip, 1080p
Формат: MKV
Видео кодек: H264 (AVC)
Аудио кодек: AC3 (Dolby Digital)
Видео: 1920x818 (2.35:1), 23.976 fps, ~16044 kbps avg
Аудио #1: 48 kHz, AC3, 5.1 ch, 384 kbps avg [Профессиональный (дубляж)]
Аудио #2: 48 kHz, DTS, 5.1 ch, 1536 kbps avg [Оригинальная звуковая дорожка]
Субтитры: русские, английские

Скриншоты
Изображение

Изображение

Изображение

Изображение
Свернуть

Mi
Format : Matroska
File size : 12.6 GiB
Duration : 1h 40mn
Overall bit rate : 17.9 Mbps
Encoded date : UTC 2011-03-10 17:49:08
Writing application : mkvmerge v4.4.0 ('Die Wiederkehr') built on Oct 31 2010 21:52:48
Writing library : libebml v1.0.0 + libmatroska v1.0.0

Video
ID : 1
Format : AVC
Format/Info : Advanced Video Codec
Format profile : High@L4.1
Format settings, CABAC : Yes
Format settings, ReFrames : 5 frames
Format settings, GOP : N=1
Codec ID : V_MPEG4/ISO/AVC
Duration : 1h 40mn
Bit rate : 15.7 Mbps
Width : 1 920 pixels
Height : 818 pixels
Display aspect ratio : 2.35:1
Frame rate : 23.976 fps
Color space : YUV
Chroma subsampling : 4:2:0
Bit depth : 8 bits
Scan type : Progressive
Bits/(Pixel*Frame) : 0.417
Stream size : 11.0 GiB (87%)
Title : Everybody's.Fine.2009.1080p.BluRay
Writing library : x264 core 114 r1913 5fd3dce
Encoding settings : cabac=1 / ref=5 / deblock=1:-3:-3 / analyse=0x3:0x133 / me=umh / subme=10 / psy=1 / psy_rd=1.10:0.00 / mixed_ref=1 / me_range=48 / chroma_me=1 / trellis=2 / 8x8dct=1 / cqm=0 / deadzone=21,11 / fast_pskip=0 / chroma_qp_offset=-2 / threads=12 / sliced_threads=0 / nr=0 / decimate=0 / interlaced=0 / constrained_intra=0 / bframes=6 / b_pyramid=2 / b_adapt=2 / b_bias=0 / direct=1 / weightb=1 / open_gop=0 / weightp=2 / keyint=250 / keyint_min=23 / scenecut=40 / intra_refresh=0 / rc_lookahead=40 / rc=crf / mbtree=0 / crf=19.0 / qcomp=0.60 / qpmin=0 / qpmax=69 / qpstep=4 / vbv_maxrate=50000 / vbv_bufsize=62500 / crf_max=0.0 / nal_hrd=none / ip_ratio=1.40 / pb_ratio=1.30 / aq=1:0.70
Language : English
Color primaries : BT.709-5, BT.1361, IEC 61966-2-4, SMPTE RP177
Transfer characteristics : BT.709-5, BT.1361
Matrix coefficients : BT.709-5, BT.1361, IEC 61966-2-4 709, SMPTE RP177

Audio #1
ID : 2
Format : AC-3
Format/Info : Audio Coding 3
Mode extension : CM (complete main)
Codec ID : A_AC3
Duration : 1h 40mn
Bit rate mode : Constant
Bit rate : 384 Kbps
Channel(s) : 6 channels
Channel positions : Front: L C R, Side: L R, LFE
Sampling rate : 48.0 KHz
Bit depth : 16 bits
Compression mode : Lossy
Stream size : 276 MiB (2%)
Title : Dub @ AC3 384 kbps
Language : Russian

Audio #2
ID : 3
Format : DTS
Format/Info : Digital Theater Systems
Codec ID : A_DTS
Duration : 1h 40mn
Bit rate mode : Constant
Bit rate : 1 510 Kbps
Channel(s) : 6 channels
Channel positions : Front: L C R, Side: L R, LFE
Sampling rate : 48.0 KHz
Bit depth : 16 bits
Compression mode : Lossy
Stream size : 1.06 GiB (8%)
Title : Eng @ DTS 1536 kbps
Language : English

Text #1
ID : 4
Format : UTF-8
Codec ID : S_TEXT/UTF8
Codec ID/Info : UTF-8 Plain Text
Title : Rus @ SRT
Language : Russian

Text #2
ID : 5
Format : UTF-8
Codec ID : S_TEXT/UTF8
Codec ID/Info : UTF-8 Plain Text
Title : Eng @ SRT
Language : English
Свернуть
Не в сети
Профиль  
 Добавлено: 2011-07-21 00:57 (спустя 4 месяца 7 дней)
Аватара пользователя
Стаж: 8 лет 1 месяц
Возраст: 32
Сообщений: 496
Спасибок: 737
Спасибо за релиз!
Не в сети
Профиль  
Начать новую темуОтветить на тему  [ Сообщений: 2 ] 
Вы не можете начинать темы
Вы не можете отвечать на сообщения
Вы не можете редактировать свои сообщения
Вы не можете удалять свои сообщения