Правила форума

Здесь находятся раздачи, на которых не было полного источника (сида) более месяца.
Вы можете вернуть релиз в соответствующий раздел, для этого напишите нам в специальной теме и встаньте на раздачу.
Новые релизы, повторяющие релизы в архиве, повторами не считаются.
Начать новую темуОтветить на тему  [ Сообщений: 2 ] 
Сообщения
 Добавлено: 2011-11-03 14:13
Модератор релиз-группы
Аватара пользователя
Стаж: 9 лет 1 месяц
Возраст: 97
Сообщений: 11659
Спасибок: 6531
Лайков: 269
Всем нужна Кэт / Cat Run

Изображение

Год выхода: 2011
Страна: США
Жанр: боевик, комедия
Продолжительность: 01:44:53
Перевод: Профессиональный (многоголосный)
оригинальная звуковая дорожка
Cубтитры: русские

Режиссер: Джон Стокуэлл

В ролях: Кристофер МакДональд, Паз Вега, Скотт Мехловиц, Тони Карран, Джанет МакТир, Карел Роден, Мишель Ломбардо, Бранко Джурич, Д.Л. Хьюли, Елена Гаврилович

Описание: Специальный агент британской разведки MI-6 Элен Бингам уже несколько лет как на пенсии. Этот факт не мешает респектабельной пенсионерке иногда смахивать пыль с залежавшегося на полке браунинга и браться за деликатные частные заказы. Клиентам хорошо известны бескомпромиссные методы агента Бингам: если кто попался на ее пути - пощады не ожидается. На этот раз бывшей шпионке необходимо разыскать красавицу Кэт, которая случайно захватила с элитной вечеринки кое-какие бумаги, не предназначенные для посторонних глаз. Теперь всем нужна Кэт.
Изображение

Качество: Blu-Ray Remux
Формат: MKV
Видео: AVC, 1920х1080p, 23,976 кадр/с, 22,9 Мбит/с
Аудио 1:Русский, AC-3, 5.1, 448 kbps, 48 kHz
Аудио 2:Английский, АС3, 5.1, 448 kbps, 48 kHz
Cубтитры: русские
скриншоты
Изображение

Изображение

Изображение

Изображение

Изображение
Свернуть
Mi
Format : Matroska
Format version : Version 2
File size : 16.9 GiB
Duration : 1h 44mn
Overall bit rate mode : Variable
Overall bit rate : 23.1 Mbps
Movie name : Всем нужна Кэт for ALL
Encoded date : UTC 2011-11-03 10:27:40
Writing application : mkvmerge v5.0.1 ('Es ist Sommer') built on Oct 9 2011 11:55:43
Writing library : libebml v1.2.2 + libmatroska v1.3.0

Video
ID : 1
Format : AVC
Format/Info : Advanced Video Codec
Format profile : High@L4.1
Format settings, CABAC : Yes
Format settings, ReFrames : 4 frames
Codec ID : V_MPEG4/ISO/AVC
Duration : 1h 44mn
Bit rate mode : Variable
Bit rate : 21.7 Mbps
Maximum bit rate : 29.0 Mbps
Width : 1 920 pixels
Height : 1 080 pixels
Display aspect ratio : 16:9
Frame rate : 23.976 fps
Standard : NTSC
Color space : YUV
Chroma subsampling : 4:2:0
Bit depth : 8 bits
Scan type : Progressive
Bits/(Pixel*Frame) : 0.436
Stream size : 15.9 GiB (94%)
Title : Release for ALL
Color primaries : BT.709-5, BT.1361, IEC 61966-2-4, SMPTE RP177
Transfer characteristics : BT.709-5, BT.1361
Matrix coefficients : BT.709-5, BT.1361, IEC 61966-2-4 709, SMPTE RP177

Audio #1
ID : 2
Format : AC-3
Format/Info : Audio Coding 3
Mode extension : CM (complete main)
Codec ID : A_AC3
Duration : 1h 44mn
Bit rate mode : Constant
Bit rate : 448 Kbps
Channel(s) : 6 channels
Channel positions : Front: L C R, Side: L R, LFE
Sampling rate : 48.0 KHz
Bit depth : 16 bits
Compression mode : Lossy
Stream size : 336 MiB (2%)
Title : многоголосый
Language : Russian

Audio #2
ID : 3
Format : AC-3
Format/Info : Audio Coding 3
Mode extension : CM (complete main)
Codec ID : A_AC3
Duration : 1h 44mn
Bit rate mode : Constant
Bit rate : 448 Kbps
Channel(s) : 6 channels
Channel positions : Front: L C R, Side: L R, LFE
Sampling rate : 48.0 KHz
Bit depth : 16 bits
Compression mode : Lossy
Stream size : 336 MiB (2%)
Language : English

Text #1
ID : 4
Format : PGS
Muxing mode : zlib
Codec ID : S_HDMV/PGS
Codec ID/Info : The same subtitle format used on BDs/HD-DVDs
Language : Russian

Text #2
ID : 5
Format : PGS
Muxing mode : zlib
Codec ID : S_HDMV/PGS
Codec ID/Info : The same subtitle format used on BDs/HD-DVDs
Language : Russian

Свернуть
_________________
Изображение
Не в сети
Профиль  
 Добавлено: 2011-11-07 11:52 (спустя 3 дня)
Стаж: 6 лет 6 месяцев
Возраст: 30
Сообщений: 79
Спасибок: 14
:co_ol:
Не в сети
Профиль  
Начать новую темуОтветить на тему  [ Сообщений: 2 ] 
Вы не можете начинать темы
Вы не можете отвечать на сообщения
Вы не можете редактировать свои сообщения
Вы не можете удалять свои сообщения