Правила форума

Здесь находятся раздачи, на которых не было полного источника (сида) более месяца.
Вы можете вернуть релиз в соответствующий раздел, для этого напишите нам в специальной теме и встаньте на раздачу.
Новые релизы, повторяющие релизы в архиве, повторами не считаются.
Начать новую темуОтветить на тему  [ Сообщений: 4 ] 
Сообщения
 Добавлено: 2011-08-24 14:22
Книголюб
Аватара пользователя
Стаж: 7 лет 2 месяца
Сообщений: 2823
Спасибок: 48823
Лайков: 73
Вторжение: Битва за рай
Tomorrow, When the War Began
Изображение


Год выпуска: 2010
Страна: США, Австралия
Слоган: «Where Were You When Everything Changed?»
Жанр: Боевик, Драма, Приключения
Продолжительность: 01:43:40
Перевод: Любительский (многоголосый закадровый)

Режиссёр: Стюарт Битти
В ролях: Линкольн Льюис, Рэйчел Херд-Вуд, Кейтлин Стэйси, Колин Фрилз, Дениз Акдениз, Фиби Тонкин, Крис Пэнг, Эшли Каммингс, Эндрю Райан, Пек Анг
Описание: Группа подростков возвращаются домой после похода и обнаруживают, что их дома захвачены врагом, а все остальные люди взяты в заложники или убиты.
Мировая премьера: 8 августа 2010
Премьера в России: 23 февраля 2011, «Централ Партнершип»
Изображение 5.121 2 177

Качество: BDRip 720p.
Формат: MKV
Видео кодек: AVC
Аудио кодек: AC3 (Dolby Digital)
Видео: 7550 Кбит/с, 1280x528, 24.00fps, 0.465Bits/Pixel
Аудио #1: Русский, 48000Hz 6ch
Аудио #1: Английский, DTS, 6 ch, 1510 Кбит/с

MediaInfo
General
Unique ID : 196859082314052125821124799047565322801 (0x9419AE1E00FC88C1BAC48AA7DE442A31)
Complete name : I:\Vtorzhenie.Bitva.za.raj.2010.x264.BDRip.720p.uniongang.tv.mkv
Format : Matroska
File size : 6.84 GiB
Duration : 1h 43mn
Overall bit rate : 9 445 Kbps
Encoded date : UTC 2011-01-14 23:05:34
Writing application : mkvmerge v3.4.0 ('Rapunzel') сборка от May 15 2010 09:38:20
Writing library : libebml v0.8.0 + libmatroska v0.9.0

Video
ID : 1
Format : AVC
Format/Info : Advanced Video Codec
Format profile : High@L4.1
Format settings, CABAC : Yes
Format settings, ReFrames : 5 frames
Format settings, GOP : M=4, N=27
Codec ID : V_MPEG4/ISO/AVC
Duration : 1h 43mn
Bit rate : 7 550 Kbps
Width : 1 280 pixels
Height : 528 pixels
Display aspect ratio : 2.40:1
Frame rate : 24.000 fps
Color space : YUV
Chroma subsampling : 4:2:0
Bit depth : 8 bits
Scan type : Progressive
Bits/(Pixel*Frame) : 0.465
Stream size : 5.33 GiB (78%)
Writing library : x264 core 112 r1834 a51816a
Encoding settings : cabac=1 / ref=5 / deblock=1:0:0 / analyse=0x3:0x133 / me=umh / subme=8 / psy=1 / psy_rd=1.00:0.00 / mixed_ref=1 / me_range=16 / chroma_me=1 / trellis=1 / 8x8dct=1 / cqm=0 / deadzone=21,11 / fast_pskip=0 / chroma_qp_offset=-2 / threads=6 / sliced_threads=0 / nr=0 / decimate=1 / interlaced=0 / constrained_intra=0 / bframes=3 / b_pyramid=2 / b_adapt=1 / b_bias=0 / direct=1 / weightb=1 / open_gop=0 / weightp=2 / keyint=240 / keyint_min=25 / scenecut=40 / intra_refresh=0 / rc_lookahead=40 / rc=2pass / mbtree=1 / bitrate=7550 / ratetol=1.0 / qcomp=0.60 / qpmin=0 / qpmax=51 / qpstep=4 / cplxblur=20.0 / qblur=0.5 / ip_ratio=1.40 / aq=1:1.00
Language : English

Audio #1
ID : 2
Format : AC-3
Format/Info : Audio Coding 3
Mode extension : CM (complete main)
Codec ID : A_AC3
Duration : 1h 43mn
Bit rate mode : Constant
Bit rate : 384 Kbps
Channel(s) : 6 channels
Channel positions : Front: L C R, Side: L R, LFE
Sampling rate : 48.0 KHz
Bit depth : 16 bits
Compression mode : Lossy
Stream size : 285 MiB (4%)
Language : Russian

Audio #2
ID : 3
Format : DTS
Format/Info : Digital Theater Systems
Codec ID : A_DTS
Duration : 1h 43mn
Bit rate mode : Constant
Bit rate : 1 510 Kbps
Channel(s) : 6 channels
Channel positions : Front: L C R, Side: L R, LFE
Sampling rate : 48.0 KHz
Bit depth : 24 bits
Compression mode : Lossy
Stream size : 1.09 GiB (16%)
Language : English

Text
ID : 4
Format : UTF-8
Codec ID : S_TEXT/UTF8
Codec ID/Info : UTF-8 Plain Text
Language : English


Свернуть


Скриншоты
Изображение
Изображение
Изображение
Изображение
Свернуть


Последний раз редактировалось coldun 2012-01-09 18:37, всего редактировалось 3 раз(а).
Не в сети
Профиль  
 Добавлено: 2011-08-24 15:00 (спустя 37 минут)
Модератор релиз-группы
Аватара пользователя
Стаж: 9 лет 1 месяц
Возраст: 97
Сообщений: 11659
Спасибок: 6530
Лайков: 269
;)
Изображение
Свернуть
_________________
Изображение
Не в сети
Профиль  
 Добавлено: 2011-08-24 16:49 (спустя 1 час 49 минут)
Аватара пользователя
Стаж: 7 лет 4 месяца
Возраст: 31
Сообщений: 321
Спасибок: 57
Как фильм?
Не в сети
Профиль  
 Добавлено: 2011-08-26 10:59 (спустя 1 день 18 часов)
Аватара пользователя
Стаж: 8 лет 10 месяцев
Сообщений: 63
Лайков: 2
Говорят не плохой фильмец.
Не в сети
Профиль  
Начать новую темуОтветить на тему  [ Сообщений: 4 ] 
Вы не можете начинать темы
Вы не можете отвечать на сообщения
Вы не можете редактировать свои сообщения
Вы не можете удалять свои сообщения