Правила форума

Здесь находятся раздачи, на которых не было полного источника (сида) более месяца.
Вы можете вернуть релиз в соответствующий раздел, для этого напишите нам в специальной теме и встаньте на раздачу.
Новые релизы, повторяющие релизы в архиве, повторами не считаются.
Начать новую темуОтветить на тему  [ 1 сообщение ] 
Сообщения
 Добавлено: 2013-07-21 13:04
Книголюб
Аватара пользователя
Стаж: 7 лет 2 месяца
Сообщений: 2823
Спасибок: 48823
Лайков: 73
Я очень возбужден
Los amantes pasajeros

«Всё прекрасно! Падаем...»

Изображение


Год выпуска: 2013
Страна: Испания
Жанр: комедия
Продолжительность: 01:30:19
Перевод: Профессиональный (дубляж)(Лицензия)

Режиссёр: Педро Альмодовар
В ролях: Хавьер Камара, Сесилия Рот, Лола Дуэньяс, Карлос Аресес, Рауль Аревало, Хосе Луис Торрихо, Антонио де ла Торре, Уго Силва, Гильермо Толедо, Хосе Мария Язпик, Антонио Бандерас, Пенелопа Крус
Описание: Рейс лайнера, совершающего перелет в Мексику, начался как обычно: пассажиры пристегнули ремни, а командир корабля, включив автопилот, спокойно уснул. Но прямо над океаном оказалось, что самолет неисправен, исчезает интернет, и все гаджеты разом выходят из строя. Всех охватывает страх, ужас, отчаяние. Беспомощные пассажиры и экипаж, оказавшись пред лицом гибели, наконец-то должны стать сами собой. Так что несчастным на борту падающего самолета не остается ничего, как только петь и танцевать вслед за веселыми стюардами.
Рейтинг MPAA: Рейтинг R (Подростки до 17 лет допускаются на фильм только в сопровождении одного из родителей)
Мировая премьера: 8 марта 2013
Премьера в России: 23 мая 2013, «Парадиз»
Изображение 6.7691967

Качество: BDRip [720p]
Формат: MKV
Видео кодек: H264 (AVC)
Аудио кодек: DTS
Видео: 1280x690 23.976fps 5 282 Kbps
Аудио #1: 48000Hz 6ch 1509 kbps

MediaInfo
General
Unique ID : 248022392509051982174182076426453960316 (0xBA9760111DC914C98591A629AB7AC67C)
Complete name : K:\Torrent\Los.amantes.pasajeros..mkv
Format : Matroska
Format version : Version 2
File size : 4.37 GiB
Duration : 1h 30mn
Overall bit rate : 6 930 Kbps
Movie name : HDCLUB present "Los amantes pasajeros - 2013"
Encoded date : UTC 2013-07-20 05:25:35
Writing application : mkvmerge v5.8.0 ('No Sleep / Pillow') built on Sep 2 2012 15:37:04
Writing library : libebml v1.2.3 + libmatroska v1.3.0

Video
ID : 1
Format : AVC
Format/Info : Advanced Video Codec
Format profile : High@L4.1
Format settings, CABAC : Yes
Format settings, ReFrames : 9 frames
Codec ID : V_MPEG4/ISO/AVC
Duration : 1h 30mn
Bit rate : 5 282 Kbps
Width : 1 280 pixels
Height : 690 pixels
Display aspect ratio : 1.855
Frame rate : 23.976 fps
Color space : YUV
Chroma subsampling : 4:2:0
Bit depth : 8 bits
Scan type : Progressive
Bits/(Pixel*Frame) : 0.249
Stream size : 3.33 GiB (76%)
Title : Los.amantes.pasajeros.2013.720p.BluRay.Rus.HDCLUB
Writing library : x264 core 136 r2348+704+51 d1baef6 tMod [8-bit@all X86_64]
Encoding settings : cabac=1 / ref=9 / deblock=1:-3:-3 / analyse=0x3:0x133 / me=umh / subme=11 / psy=1 / fade_compensate=0.00 / psy_rd=1.00:0.00 / mixed_ref=1 / me_range=48 / chroma_me=1 / trellis=2 / 8x8dct=1 / cqm=0 / deadzone=21,11 / fast_pskip=0 / chroma_qp_offset=-2 / threads=12 / lookahead_threads=2 / sliced_threads=0 / nr=0 / decimate=1 / interlaced=0 / bluray_compat=0 / constrained_intra=0 / fgo=0 / bframes=7 / b_pyramid=2 / b_adapt=2 / b_bias=0 / direct=1 / weightb=1 / open_gop=0 / weightp=2 / keyint=240 / keyint_min=23 / scenecut=40 / intra_refresh=0 / rc_lookahead=60 / rc=crf / mbtree=0 / crf=17.2000 / qcomp=0.60 / qpmin=0:0:0 / qpmax=69:69:69 / qpstep=4 / vbv_maxrate=50000 / vbv_bufsize=62500 / crf_max=0.0 / nal_hrd=none / ip_ratio=1.40 / pb_ratio=1.30 / aq=1:0.80 / aq-sensitivity=10.00 / aq-factor=1.00:1.00:1.00 / aq2=0 / aq3=0
Language : Spanish
Default : Yes
Forced : No

Audio
ID : 2
Format : DTS
Format/Info : Digital Theater Systems
Codec ID : A_DTS
Duration : 1h 30mn
Bit rate mode : Constant
Bit rate : 1 510 Kbps
Channel(s) : 6 channels
Channel positions : Front: L C R, Side: L R, LFE
Sampling rate : 48.0 KHz
Bit depth : 16 bits
Compression mode : Lossy
Stream size : 975 MiB (22%)
Title : DTS 5.1 @ 1509 kbps - Dubbed [BD RUS]
Language : Russian
Default : Yes
Forced : No

Menu
00:00:00.000 : ru:Chapter 1
00:06:35.520 : ru:Chapter 2
00:10:15.781 : ru:Chapter 3
00:15:57.247 : ru:Chapter 4
00:21:09.101 : ru:Chapter 5
00:27:09.169 : ru:Chapter 6
00:32:07.258 : ru:Chapter 7
00:40:24.672 : ru:Chapter 8
00:48:28.530 : ru:Chapter 9
00:52:06.873 : ru:Chapter 10
00:58:32.759 : ru:Chapter 11
01:03:58.584 : ru:Chapter 12
01:08:45.746 : ru:Chapter 13
01:14:06.442 : ru:Chapter 14
01:21:01.982 : ru:Chapter 15
01:25:20.323 : ru:Chapter 16


Свернуть

Скриншоты
Изображение
Изображение
Изображение
Свернуть
Не в сети
Профиль  
Начать новую темуОтветить на тему  [ 1 сообщение ] 
Вы не можете начинать темы
Вы не можете отвечать на сообщения
Вы не можете редактировать свои сообщения
Вы не можете удалять свои сообщения