Правила форума

Здесь находятся раздачи, на которых не было полного источника (сида) более месяца.
Вы можете вернуть релиз в соответствующий раздел, для этого напишите нам в специальной теме и встаньте на раздачу.
Новые релизы, повторяющие релизы в архиве, повторами не считаются.
Начать новую темуОтветить на тему  [ Сообщений: 5 ] 
Сообщения
 Добавлено: 2011-12-31 18:27
Аватара пользователя
Стаж: 9 лет
Возраст: 9
Сообщений: 225
Спасибок: 236
Лайков: 2
За пригоршню долларов / Fistful of dollars / Per un pugno di dollari

Изображение


Год выпуска: 1964
Страна: Италия / ФРГ / Испания
Слоган: «A Fistful of Dollars is the first motion picture of its kind. It won't be the last!»
Жанр: Вестерн
Продолжительность: 01:39:54
Перевод 1: Профессиональный (многоголосый закадровый)
Перевод 2: Одноголосый закадровый - Д.Пучков (Goblin)
Перевод 3: Одноголосый закадровый - А.Гаврилов
Перевод 4: Одноголосый закадровый - В.Горчаков
Субтитры: Russian Goblin, Russian, English

Режиссёр: Серджио Леоне / Sergio Leone, Монте Хеллман / Monte Hellman
Сценарий: Рюдзо Кикусима / Ryuzo Kikushima, Акира Куросава / Akira Kurosawa, Дуччо Тессари / Duccio Tessari
Продюсер: Арриго Коломбо / Arrigo Colombo, Джорджо Папи / Giorgio Papi, Питер Сэйнт / Piero Santini
Оператор: Массимо Далламано / Massimo Dallamano, Федерико Гарсия Ларрайя / Federico García Larraya
Композитор: Эннио Морриконе / Ennio Morricone
В ролях: Клинт Иствуд / Clint Eastwood, Марианне Кох / Marianne Koch, Джан Мария Волонте / Gian Maria Volontè, Вольфганг Лукши / Wolfgang Lukschy, Зигхардт Рупп / Sieghardt Rupp, Джозеф Эггер / Joseph Egger, Антонио Прието / Antonio Prieto, Хосе Кальво / José Calvo, Маргарита Лосано / Margarita Lozano
Бюджет: $200 000
Сборы в США: $3 500 000

Мировая премьера: 12 сентября 1964
Релиз на DVD: 14 ноября 2009, «Азимут»

Саундтрек: Скачать
Описание: В маленьком городке идет война между двумя влиятельными семействами, которых абсолютно не интересует закон. Герой Клинта Иствуда - человек без имени, умеющий стрелять без промаха…
Изображение 8.051 (7 015)
Изображение 8.0 (51 097)

MPAA: Изображение - Рейтинг NC-17 (Лица, не достигшие 17 лет, на фильм не допускаются)

Качество: BDRip
Формат: MKV
Видео кодек: H.264
Аудио кодек: AC3
Видео: 1920x816, 10824 Kbps, 24 fps, x264 - L4.1
Аудио #1: Русский DD 5.1 448 Kbps (многоголосый закадровый)
Аудио #2: Русский DD 5.1 384 Kbps (Д.Пучков)
Аудио #3: Русский DD 2.0 192 Kbps (А.Гаврилов)
Аудио #4: Русский DD 2.0 192 Kbps (В.Горчаков)
Аудио #5: Английский DD 5.1 384 Kbps
Аудио #6: Английский DD 1.0 192 Kbps (с Blu-Ray)
Аудио #7: Итальянский DD 5.1 640 Kbps (из PCM с Blu-Ray)
Субтитры: Russian Goblin, Russian, English
Интересные факты о фильме
Релиз фильма в США был задержан, потому что сценаристы «Телохранителя» (1961) Акира Куросава и Рюзо Кукушима подали в суд на создателей «За пригоршню долларов» за нарушение авторских прав. Куросава и Кикушима выиграли процесс и получили 15 процентов от мирового проката фильма Серджио Леоне, эксклюзивные права на дистрибуцию в Японии, Тайване и Южной Корее. По словам Куросавы, картина «За пригоршню долларов» принесла ему больше денег, чем его же «Телохранитель» (1961).

Главная роль могла достаться Генри Фонде, Стиву Ривзу и Чарльзу Бронсону.

«За пригоршню долларов» — ремейк «Телохранителя» (1961).

В американских трейлерах, а также в промо-материалах название фильма было указано как «A Fistful of Dollars», однако, в самом фильме — «Fistful of Dollars».

Изначально Серджио Леоне не собирался приглашать Эннио Морриконе для работы над фильмом, так как он не был впечатлен ни одним из саундтреков, что сделал Морриконе для других картин. Однако, уже начальные наброски будущих композиций, прозвучавших в фильме, заставили Леоне изменить свою точку зрения и немедленно заключить контракт с Морриконе. В дальнейшем Морриконе напишет музыку для всех последующих фильмов Леоне.

«За пригоршню долларов» называют первым спагетти-вестерном, но до выхода фильма на экраны уже существовало около 25 подобных картин, снятых в Италии. Однако, «За пригоршню долларов» стал первым фильмом, получившим международный прокат.
«За пригоршню долларов» — первый совместный проект Серджио Леоне и Эннио Морриконе.

В школе, Серджио Леоне и Эннио Морриконе учились в одном классе.

Изначальное название фильма «Великолепный незнакомец» («The Magnificent Stranger») было изменено на «За пригоршню долларов» всего за три дня до премьеры. Никто не удосужился известить об этом Клинта Иствуда, который и понятия не имел, что фильм получил радужный прием у зрителей до тех пор, пока его агент, три недели спустя, не сказал ему об этом.

Имя «Человека без имени» (Клинт Иствуд) — Джо. Его имя можно услышать в сцене разговора с гробовщиком, а также в финальных титрах персонаж Иствуда указан как Джо.

По словам Говарда Хьюза, автора «Однажды на диком итальянском Западе», Серджио Леоне самостоятельно нашел дерево, которое, по его мнению, идеально подходило для дерева с виселицей. Дерево выкопали и перевезли на съёмочную площадку.

Клинт Иствуд во многом самостоятельно создал образ своего героя. Так, например, он купил черные джинсы, шляпу и сигары.

Так как это была совместная итальяно-немецко-испанская постановка, на съёмочной площадке существовал значительный языковой барьер. Клинт Иствуд общался с Серджио Леоне и итальянской частью съёмочной группы через каскадера Бенито Стефанелли, который был неофициальным переводчиком на проекте.

Когда состоялась премьера фильма на канале «ABC» в 1975 году, то для картины была снята дополнительная сцена, объясняющая почему «Человек без имени» отправился в Сан Мигель. Ни Иствуд, ни Леоне не участвовали в досъёмках. В данной сцене Гарри Дин Стэнтон, сыгравший политика, приказывает герою Иствуда в обмен на помилование отправиться в Сан Мигель и избавить город от двух банд. Данная сцена доступна на специальном DVD-издании фильма.

Известнейший прищур Клинта Иствуда возник из-за яркого солнца и высоковатных ламп на съёмках.

Съёмки фильма завершились в 1964 году, но в кинопрокат США картина вышла только в 1967.

Клинт Иствуд сам предложил идею того, чтобы «Человек без имени» курил сигары. Он купил обычные сигары, а затем разрезал каждую из них на три части.

В начальных титрах фильма в имени режиссера было написано «Боб Робертс» вместо Серджио Леоне, это было обусловлено тем, что раньше в Италии люди не ходили на итальянские фильмы, а ходили исключительно на американские. Именно поэтому Леоне схитрил и взял себе псевдоним Боб Робертс.

Свернуть
Media Info
General
Complete name : E:\BDRip 1080p\A.Fistful.of.Dollars.(1964).BluRay.1080p.x264.DTS-McFly.4xRus.mkv
Format: Matroska
Format version: Version 1
File size: 9.24 GiB
Duration: 1h 39mn
Overall bit rate: 13.2 Mbps
Encoded date: UTC 2009-01-11 10:27:15
Writing application: mkvmerge v2.4.1 ('Use Me') built on Dec 5 2008 18:30:05
Writing library: libebml v0.7.7 + libmatroska v0.8.1

Video
ID: 1
Format: AVC
Format/Info: Advanced Video Codec
Format profile: High@L4.1
Format settings, CABAC: Yes
Format settings, ReFrames: 4 frames
Codec ID: V_MPEG4/ISO/AVC
Duration: 1h 39mn
Bit rate: 10.8 Mbps
Width: 1 920 pixels
Height: 816 pixels
Display aspect ratio: 2.35:1
Frame rate: 24.000 fps
Color space: YUV
Chroma subsampling: 4:2:0
Bit depth: 8 bits
Scan type: Progressive
Bits/(Pixel*Frame): 0.288
Stream size: 7.36 GiB (80%)
Title: H264 - 10824 Kbps
Writing library: x264 core 65 r1029M cb3c213
Encoding settings: cabac=1 / ref=4 / deblock=1:-3:-3 / analyse=0x3:0x113 / me=umh / subme=9 / psy_rd=0.9:0.8 / mixed_ref=1 / me_range=16 / chroma_me=1 / trellis=2 / 8x8dct=1 / cqm=2 / deadzone=21,11 / chroma_qp_offset=-4 / threads=3 / nr=0 / decimate=1 / mbaff=0 / bframes=3 / b_pyramid=1 / b_adapt=2 / b_bias=0 / direct=3 / wpredb=1 / keyint=250 / keyint_min=25 / scenecut=40(pre) / rc=2pass / bitrate=10824 / ratetol=1.0 / qcomp=0.60 / qpmin=10 / qpmax=51 / qpstep=4 / cplxblur=20.0 / qblur=0.5 / ip_ratio=1.40 / pb_ratio=1.30 / aq=1:0.70
Language: Italian

Audio #1
ID: 2
Format: AC-3
Format/Info: Audio Coding 3
Mode extension: CM (complete main)
Codec ID: A_AC3
Duration: 1h 39mn
Bit rate mode: Constant
Bit rate: 448 Kbps
Channel(s): 6 channels
Channel positions: Front: L C R, Side: L R, LFE
Sampling rate: 48.0 KHz
Bit depth: 16 bits
Compression mode: Lossy
Stream size: 320 MiB (3%)
Title: Russian (MVO)
Language: Russian

Audio #2
ID: 3
Format: AC-3
Format/Info: Audio Coding 3
Mode extension: CM (complete main)
Codec ID: A_AC3
Duration: 1h 39mn
Bit rate mode: Constant
Bit rate: 384 Kbps
Channel(s): 6 channels
Channel position: Front: L C R, Side: L R, LFE
Sampling rate: 48.0 KHz
Bit depth: 16 bits
Compression mode: Lossy
Stream size: 274 MiB (3%)
Title: Russian (Goblin)
Language: Russian

Audio #3
ID: 4
Format: AC-3
Format/Info: Audio Coding 3
Format profile: Dolby Digital
Mode extension: CM (complete main)
Codec ID: A_AC3
Duration: 1h 39mn
Bit rate mode: Constant
Bit rate: 192 Kbps
Channel(s): 2 channels
Channel positions: Front: L R
Sampling rate: 48.0 KHz
Bit depth: 16 bits
Compression mode: Lossy
Stream size: 137 MiB (1%)
Title: Russian (A.Gavrilov)
Language: Russian

Audio #4
ID: 5
Format: AC-3
Format/Info: Audio Coding 3
Format profile: Dolby Digital
Mode extension: CM (complete main)
Codec ID: A_AC3
Duration: 1h 39mn
Bit rate mode: Constant
Bit rate: 192 Kbps
Channel(s): 2 channels
Channel positions: Front: L R
Sampling rate: 48.0 KHz
Bit depth: 16 bits
Compression mode: Lossy
Stream size: 137 MiB (1%)
Title: Russian (V.Gorchakov)
Language: Russian

Audio #5
ID: 6
Format: AC-3
Format/Info: Audio Coding 3
Mode extension: CM (complete main)
Codec ID: A_AC3
Duration: 1h 39mn
Bit rate mode: Constant
Bit rate: 384 Kbps
Channel(s): 6 channels
Channel positions: Front: L C R, Side: L R, LFE
Sampling rate: 48.0 KHz
Bit depth: 16 bits
Compression mode: Lossy
Stream size: 274 MiB (3%)
Title: English 5.1
Language: English

Audio #6
ID: 7
Format: AC-3
Format/Info: Audio Coding 3
Mode extension: CM (complete main)
Codec ID: A_AC3
Duration: 1h 39mn
Bit rate mode: Constant
Bit rate: 192 Kbps
Channel(s): 1 channel
Channel positions: Front: C
Sampling rate: 48.0 KHz
Bit depth: 16 bits
Compression mode: Lossy
Stream size: 137 MiB (1%)
Title: English 1.0
Language: English

Audio #7
ID 8
Format: AC-3
Format/Info: Audio Coding 3
Mode extension: CM (complete main)
Codec ID: A_AC3
Duration: 1h 39mn
Bit rate mode: Constant
Bit rate: 640 Kbps
Channel(s): 6 channels
Channel positions: Front: L C R, Side: L R, LFE
Sampling rate: 48.0 KHz
Bit depth: 16 bits
Compression mode: Lossy
Stream size: 457 MiB (5%)
Title: Italian 5.1
Language: Italian

Text #1
ID: 9
Format: UTF-8
Codec ID: S_TEXT/UTF8
Codec ID/Info: UTF-8 Plain Text
Language: Russian

Text #2
ID: 10
Format: UTF-8
Codec ID: S_TEXT/UTF8
Codec ID/Info: UTF-8 Plain Text
Title: Goblin
Language: Russian

Text #3
ID: 11
Format: UTF-8
Codec ID: S_TEXT/UTF8
Codec ID/Info: UTF-8 Plain Text
Language: English

Menu
00:00:00.000 : en:00:00:00.000
00:02:53.708 : en:00:02:53.708
00:08:26.333 : en:00:08:26.333
00:16:38.083 : en:00:16:38.083
00:21:15.875 : en:00:21:15.875
00:27:48.000 : en:00:27:48.000
00:34:26.250 : en:00:34:26.250
00:36:59.083 : en:00:36:59.083
00:41:20.792 : en:00:41:20.792
00:47:50.083 : en:00:47:50.083
00:50:38.500 : en:00:50:38.500
00:57:24.125 : en:00:57:24.125
01:00:57.875 : en:01:00:57.875
01:07:26.583 : en:01:07:26.583
01:11:52.958 : en:01:11:52.958
01:24:55.833 : en:01:24:55.833
01:28:56.167 : en:01:28:56.167
01:34:37.708 : en:01:34:37.708
Свернуть
Скриншоты
Изображение
Изображение
Изображение
Свернуть
_________________
Изображение
Изображение
Изображение


Последний раз редактировалось commissar 2011-12-31 18:46, всего редактировалось 1 раз.
Не в сети
Профиль  
 Добавлено: 2011-12-31 18:29 (спустя 2 минуты)
Аватара пользователя
Стаж: 8 лет 3 месяца
Возраст: 43
Сообщений: 3290
Спасибок: 21012
Лайков: 3
commissar
Для HD и HQRip-ов необходимы скриншоты в формате PNG, для остальных форматов PNG так же рекомендуется.
Исправьте пожалуйста
Как все исправите, то сообщите пожалуйста в ЛС мне или любому модератору видео. Обязательно со ссылкой на релиз :)
_________________
Изображение
Не в сети
Профиль  
 Добавлено: 2012-04-10 13:42 (спустя 3 месяца 9 дней)
Аватара пользователя
Стаж: 7 лет 2 месяца
Сообщений: 16
Спасибок: 196
Встаньте на раздачу плиз.
Не в сети
Профиль  
 Добавлено: 2012-04-10 14:51 (спустя 1 час 9 минут)
Аватара пользователя
Стаж: 9 лет
Возраст: 9
Сообщений: 225
Спасибок: 236
Лайков: 2
раздаю 10 мб/с
_________________
Изображение
Изображение
Изображение
Не в сети
Профиль  
 Добавлено: 2012-08-19 15:43 (спустя 4 месяца 9 дней)
Стаж: 7 лет
Сообщений: 7
commissar
Спасибо, пошёл второй качать)
Не в сети
Профиль  
Начать новую темуОтветить на тему  [ Сообщений: 5 ] 
Вы не можете начинать темы
Вы не можете отвечать на сообщения
Вы не можете редактировать свои сообщения
Вы не можете удалять свои сообщения