Правила форума

Здесь находятся раздачи, на которых не было полного источника (сида) более месяца.
Вы можете вернуть релиз в соответствующий раздел, для этого напишите нам в специальной теме и встаньте на раздачу.
Новые релизы, повторяющие релизы в архиве, повторами не считаются.
Начать новую темуОтветить на тему  [ Сообщений: 2 ] 
Сообщения
 Добавлено: 2013-09-01 17:17
Руководитель релиз-группы
Аватара пользователя
Стаж: 7 лет 2 месяца
Возраст: 4
Сообщений: 5213
Спасибок: 19349
Лайков: 2312
Зажигание / Combustión

Изображение

Год выпуска : 2013
Страна: Испания
Жанр: Мелодрама, приключения, боевик
Продолжительность: 01:43:37
Перевод: Профессиональный (полное дублирование) [Чистый звук]
Субтитры: Английские, испанские
Режиссер: Даниэль Кальпарсоро / Daniel Calparsoro
В ролях: Алекс Гонсалес (Mikel), Адриана Угарте (Ari), Альберто Амман (Navas), Мария Кастро (Julia), Луис Саера, Марта Ниэто, Кристиан Мулас (Nano), Хуан Пабло Шук, Мария Каласса (Chica Despedida 1)
Описание:
Навас и Ари - идеальная пара и профессиональные мошенники. Она - роковая красотка, соблазняющая богатых мужчин, а он - жестокий налетчик, который их грабит. Все меняется, когда Навас и Ари выбирают себе новую жертву - богатенького красавчика Микеля, в которого Ари влюбляется без памяти...

Качество: BDRip 1080р
Формат: MKV
Видео кодек: AVC
Аудио кодек: AC3/DTS
Видео: AVC, 1920x816 (2.35:1), 10842 kbps, 24 fps
Аудио №1: русский / AC3 / 2.0 / 44 kHz / 192 kbps / 16 bit
Аудио №2: Spanish / DTS / 5.1 / 48 kHz / 1510 kbps / 24 bit

Сэмпл

MI
General
Unique ID : 171987590332938265641089995001617393215 (0x81639AE3262F0E368B48D26E05FB263F)
Complete name : I:Combustion.2013.x264.BDRip.1080p.mkv
Format : Matroska
Format version : Version 2
File size : 9.26 GiB
Duration : 1h 43mn
Overall bit rate : 12.8 Mbps
Encoded date : UTC 2013-08-31 18:39:38
Writing application : mkvmerge v5.8.0 ('No Sleep / Pillow') built on Sep 2 2012 15:37:04
Writing library : libebml v1.2.3 + libmatroska v1.3.0

Video
ID : 1
Format : AVC
Format/Info : Advanced Video Codec
Format profile : High@L4.1
Format settings, CABAC : Yes
Format settings, ReFrames : 4 frames
Codec ID : V_MPEG4/ISO/AVC
Duration : 1h 43mn
Bit rate : 10.8 Mbps
Width : 1 920 pixels
Height : 816 pixels
Display aspect ratio : 2.35:1
Frame rate : 24.000 fps
Color space : YUV
Chroma subsampling : 4:2:0
Bit depth : 8 bits
Scan type : Progressive
Bits/(Pixel*Frame) : 0.288
Stream size : 7.85 GiB (85%)
Writing library : x264 core 130 r2273 b3065e6
Encoding settings : cabac=1 / ref=5 / deblock=1:-3:-3 / analyse=0x3:0x113 / me=umh / subme=7 / psy=1 / psy_rd=1.00:0.00 / mixed_ref=1 / me_range=16 / chroma_me=1 / trellis=1 / 8x8dct=1 / cqm=0 / deadzone=21,11 / fast_pskip=1 / chroma_qp_offset=-2 / threads=64 / lookahead_threads=6 / sliced_threads=0 / nr=0 / decimate=1 / interlaced=0 / bluray_compat=0 / constrained_intra=0 / bframes=8 / b_pyramid=1 / b_adapt=2 / b_bias=0 / direct=3 / weightb=1 / open_gop=0 / weightp=2 / keyint=240 / keyint_min=24 / scenecut=40 / intra_refresh=0 / rc_lookahead=50 / rc=crf / mbtree=1 / crf=18.5 / qcomp=0.60 / qpmin=0 / qpmax=69 / qpstep=4 / ip_ratio=1.40 / aq=1:1.00
Language : Spanish
Default : Yes
Forced : Yes

Audio #1
ID : 2
Format : AC-3
Format/Info : Audio Coding 3
Mode extension : CM (complete main)
Codec ID : A_AC3
Duration : 1h 43mn
Bit rate mode : Constant
Bit rate : 192 Kbps
Channel(s) : 2 channels
Channel positions : Front: L R
Sampling rate : 44.1 KHz
Bit depth : 16 bits
Compression mode : Lossy
Stream size : 142 MiB (2%)
Language : Russian
Default : Yes
Forced : Yes

Audio #2
ID : 3
Format : DTS
Format/Info : Digital Theater Systems
Codec ID : A_DTS
Duration : 1h 43mn
Bit rate mode : Constant
Bit rate : 1 510 Kbps
Channel(s) : 6 channels
Channel positions : Front: L C R, Side: L R, LFE
Sampling rate : 48.0 KHz
Bit depth : 24 bits
Compression mode : Lossy
Stream size : 1.09 GiB (12%)
Language : Spanish
Default : No
Forced : No

Text #1
ID : 4
Format : VobSub
Muxing mode : zlib
Codec ID : S_VOBSUB
Codec ID/Info : The same subtitle format used on DVDs
Language : English
Default : No
Forced : No

Text #2
ID : 5
Format : VobSub
Muxing mode : zlib
Codec ID : S_VOBSUB
Codec ID/Info : The same subtitle format used on DVDs
Language : Spanish
Default : No
Forced : No

Menu
00:00:00.000 : en:00:00:00.000
00:08:06.292 : en:00:08:06.292
00:17:20.083 : en:00:17:20.083
00:25:45.208 : en:00:25:45.208
00:34:20.708 : en:00:34:20.708
00:43:27.708 : en:00:43:27.708
00:51:47.500 : en:00:51:47.500
01:00:54.750 : en:01:00:54.750
01:09:25.500 : en:01:09:25.500
01:16:57.750 : en:01:16:57.750
01:27:00.292 : en:01:27:00.292
01:35:02.208 : en:01:35:02.208
Свернуть

Скриншоты
Изображение

Изображение

Изображение
Свернуть
_________________
Изображение

Изображение
 di-ys1, rotametr и Scylla нравится это.
Не в сети
Профиль  
 Добавлено: 2013-09-01 18:50 (спустя 1 час 33 минуты)
Аватара пользователя
Стаж: 7 лет 4 месяца
Сообщений: 113
Лайков: 1
заценим :)
_________________
Будь добрее
Не в сети
Профиль  
Начать новую темуОтветить на тему  [ Сообщений: 2 ] 
Вы не можете начинать темы
Вы не можете отвечать на сообщения
Вы не можете редактировать свои сообщения
Вы не можете удалять свои сообщения