Правила форума

Здесь находятся раздачи, на которых не было полного источника (сида) более месяца.
Вы можете вернуть релиз в соответствующий раздел, для этого напишите нам в специальной теме и встаньте на раздачу.
Новые релизы, повторяющие релизы в архиве, повторами не считаются.
Начать новую темуОтветить на тему  [ Сообщений: 5 ] 
Сообщения
 Добавлено: 2013-10-15 08:12
DVD Release Group
Аватара пользователя
Стаж: 7 лет 1 месяц
Сообщений: 3569
Спасибок: 247662
Лайков: 1020
Заклятие

The Conjuring


Изображение


Год выпуска: 2013
Страна: США
Жанр: Ужасы, триллер
Продолжительность: 01:51:00
Перевод: Профессиональный (полное дублирование) [не кинотеатральный]
Режиссер: Джеймс Ван
В ролях: Вера Фармига, Патрик Уилсон, Рон Ливингстон, Лили Тейлор, Шэнли Касвелл, Хейли МакФарланд, Джои Кинг, Маккензи Фой, Кайла Дивер, Шэнон Кук-Чан
Описание: В основе картины лежит реальная история семьи Перрон, которые утверждали, что жили в окружении привидений, как добрых, так и злых. Духи населяли дом на Род-Айленде, в котором Перроны проживали в семидесятых годах XX века.
Изображение
Дополнительно: Сохранены оригинальные чаптеры
Качество: BDRip 1080p
Формат: MKV
Видео кодек: H.264
Аудио кодек: AC3, DTS
Видео: 1920x800 23.98fps 8272kbps
Аудио:
Audio Rus: AC3 48kHz 6ch 448kbps
Audio Eng: DTS 48kHz 6ch 1510kbps
"MediaInfo"
Формат : Matroska
Версия формата : Version 2
Размер файла : 8,00 Гбайт
Продолжительность : 1 ч. 51 м.
Общий поток : 10,2 Мбит/сек
Дата кодирования : UTC 2013-10-14 16:05:44
Программа кодирования : mkvmerge v5.7.0 ('The Whirlwind') built on Jul 8 2012 20:08:51
Библиотека кодирования : libebml v1.2.3 + libmatroska v1.3.0

Видео
Идентификатор : 1
Формат : AVC
Формат/Информация : Advanced Video Codec
Профиль формата : High@L4.1
Параметр CABAC формата : Да
Параметр ReFrames формата : 5 кадров
Режим смешивания : Header stripping
Идентификатор кодека : V_MPEG4/ISO/AVC
Продолжительность : 1 ч. 51 м.
Битрейт : 8272 Кбит/сек
Ширина : 1920 пикселей
Высота : 800 пикселей
Соотношение сторон : 2,40:1
Частота кадров : 23,976 кадра/сек
Цветовое пространство : YUV
Субдискретизация насыщенности : 4:2:0
Битовая глубина : 8 бит
Тип развёртки : Прогрессивная
Бит/(Пиксели*Кадры) : 0.225
Размер потока : 6,31 Гбайт (79%)
Заголовок : X264
Библиотека кодирования : x264 core 133 r2334 a3ac64b
Настройки программы : cabac=1 / ref=5 / deblock=1:0:0 / analyse=0x3:0x133 / me=umh / subme=7 / psy=1 / psy_rd=1.00:0.00 / mixed_ref=1 / me_range=16 / chroma_me=1 / trellis=1 / 8x8dct=1 / cqm=0 / deadzone=21,11 / fast_pskip=0 / chroma_qp_offset=-2 / threads=12 / lookahead_threads=2 / sliced_threads=0 / nr=0 / decimate=1 / interlaced=0 / bluray_compat=0 / constrained_intra=0 / bframes=3 / b_pyramid=2 / b_adapt=1 / b_bias=0 / direct=1 / weightb=1 / open_gop=0 / weightp=2 / keyint=250 / keyint_min=23 / scenecut=40 / intra_refresh=0 / rc_lookahead=40 / rc=2pass / mbtree=1 / bitrate=8272 / ratetol=1.0 / qcomp=0.60 / qpmin=0 / qpmax=69 / qpstep=4 / cplxblur=20.0 / qblur=0.5 / ip_ratio=1.40 / aq=1:1.00
Язык : English
Default : Да
Forced : Нет

Аудио #1
Идентификатор : 2
Формат : AC-3
Формат/Информация : Audio Coding 3
Расширение режима : CM (complete main)
Режим смешивания : Header stripping
Идентификатор кодека : A_AC3
Продолжительность : 1 ч. 51 м.
Вид битрейта : Постоянный
Битрейт : 448 Кбит/сек
Каналы : 6 каналов
Расположение каналов : Front: L C R, Side: L R, LFE
Частота : 48,0 КГц
Битовая глубина : 16 бит
Метод сжатия : С потерями
Размер потока : 359 Мбайт (4%)
Default : Да
Forced : Нет

Аудио #2
Идентификатор : 3
Формат : DTS
Формат/Информация : Digital Theater Systems
Режим смешивания : Header stripping
Идентификатор кодека : A_DTS
Продолжительность : 1 ч. 51 м.
Вид битрейта : Постоянный
Битрейт : 1510 Кбит/сек
Каналы : 6 каналов
Расположение каналов : Front: L C R, Side: L R, LFE
Частота : 48,0 КГц
Битовая глубина : 24 бит
Метод сжатия : С потерями
Размер потока : 1,18 Гбайт (15%)
Заголовок : DTS
Язык : English
Default : Нет
Forced : Нет

Меню
00:00:00.000 : en:00:00:00.000
00:08:52.991 : en:00:08:52.991
00:19:26.665 : en:00:19:26.665
00:29:15.754 : en:00:29:15.754
00:40:50.239 : en:00:40:50.239
00:51:06.730 : en:00:51:06.730
00:59:55.467 : en:00:59:55.467
01:10:37.150 : en:01:10:37.150
01:21:03.108 : en:01:21:03.108
01:28:59.292 : en:01:28:59.292
01:38:10.760 : en:01:38:10.760
01:46:08.362 : en:01:46:08.362
Свернуть

"Скриншоты"
Изображение
Изображение
Изображение
Свернуть

"Раздача"
Изображение
Свернуть

Раздача группы:
Изображение
Не в сети
Профиль  
 Добавлено: 2013-10-15 14:44 (спустя 6 часов)
Модератор
Аватара пользователя
Стаж: 8 лет 10 месяцев
Сообщений: 2743
Спасибок: 21519
Лайков: 338
НАПИШИ В ЗАГОЛОВКЕ DUB [ПИРАТЫ], А НЕ ЧИСТЫЙ ЗВУК!!!
Не в сети
Профиль  
 Добавлено: 2013-10-15 14:49 (спустя 4 минуты)
DVD Release Group
Аватара пользователя
Стаж: 7 лет 1 месяц
Сообщений: 3569
Спасибок: 247662
Лайков: 1020
music_boy08
1. НапишитЕ.
2. Звук чистый - чистый.
3. Дубляж - дубляж.
4. Когда выйдет лицензия - будет написано что лицензия.
Не в сети
Профиль  
 Добавлено: 2013-10-15 22:13 (спустя 7 часов)
Top-releaser
Аватара пользователя
Стаж: 8 лет 9 месяцев
Сообщений: 211
Спасибок: 3857
Лайков: 1
и нажми Caps Lock уже
_________________
Изображение
Не в сети
Профиль  
 Добавлено: 2013-10-18 16:29 (спустя 2 дня 18 часов)
Хавбек
Аватара пользователя
Стаж: 7 лет 7 месяцев
Возраст: 25
Сообщений: 216
Как звук-то? Смотрибельно?
Не в сети
Профиль  
Начать новую темуОтветить на тему  [ Сообщений: 5 ] 
Вы не можете начинать темы
Вы не можете отвечать на сообщения
Вы не можете редактировать свои сообщения
Вы не можете удалять свои сообщения