Правила форума

Здесь находятся раздачи, на которых не было полного источника (сида) более месяца.
Вы можете вернуть релиз в соответствующий раздел, для этого напишите нам в специальной теме и встаньте на раздачу.
Новые релизы, повторяющие релизы в архиве, повторами не считаются.
Начать новую темуОтветить на тему  [ Сообщений: 4 ] 
Сообщения
 Добавлено: 2013-01-10 22:02
Модератор релиз-группы
Аватара пользователя
Стаж: 6 лет 5 месяцев
Возраст: 25
Сообщений: 622
Спасибок: 10257
Лайков: 7
Заложница 2 / Taken 2

Изображение


Год выпуска: 2012
Страна: Франция
Жанр: боевик, триллер, драма, криминал
Продолжительность: 01:32:38
Перевод: Профессиональный (полное дублирование) [Чистый звук]
Субтитры: Нет

Режиссёр: Оливье Мегатон
В ролях: Лиам Нисон, Мэгги Грэйс, Фамке Янссен, Лиленд Орсер, Джон Грайз, Д.Б. Суини, Люк Граймс, Раде Шербеджия, Кеворк Маликян, Ален Фиглаж
Описание: Брайану Миллсу придется расхлебывать последствия своих действий. Спасая свою дочь, он убил главаря банды, у которого — сюрприз! — есть отец по имени Мурад. Мурад жаждет отмщения и описывается как человек, отдающий приказы, но сам никогда никому не подчиняющийся. Мурад берет в заложники Миллса с супругой, и тут уже Ким Миллс нужно будет спасать своих родителей.
Изображение 6.5/10 (44,383 votes)
Релиз группы: Изображение
Видео: 720x480 23,98fps 4799Kbps
Аудио #1: Rus: 48kHz 6ch 384Kbps
Аудио #2: Eng: 48kHz 6ch 448Kbps
"MediaInfo"
Формат : MPEG-PS
Размер файла : 1024 Мбайт
Продолжительность : 24 м.
Режим общего битрейта : Переменный
Общий поток : 5745 Кбит/сек
Библиотека кодирования : encoded by TMPGEnc Authoring Works 5 Version. 5.0.8.26

Видео
Идентификатор : 224 (0xE0)
Формат : MPEG Video
Версия формата : Version 2
Профиль формата : Main@Main
Параметр BVOP формата : Да
Параметр матрицы формата : Выборочная
Продолжительность : 24 м.
Вид битрейта : Переменный
Битрейт : 4799 Кбит/сек
Максимальный битрейт : 8000 Кбит/сек
Ширина : 720 пикселей
Высота : 480 пикселей
Соотношение сторон : 16:9
Частота кадров : 23,976 кадра/сек
Стандарт вещания : NTSC
Цветовое пространство : YUV
Субдискретизация насыщенности : 4:2:0
Битовая глубина : 8 бит
Тип развёртки : Прогрессивная
Порядок развёртки : 2:3 Pulldown
Метод сжатия : С потерями
Бит/(Пиксели*Кадры) : 0.579
Размер потока : 855 Мбайт (84%)
Библиотека кодирования : TMPGEnc Authoring Works 5 Version. 5.0.8.26
Основные цвета : SMPTE 170M
Характеристики трансфера : SMPTE 170M
Коэффициенты матрицы : SMPTE 170M

Аудио #1
Идентификатор : 189 (0xBD)-128 (0x80)
Формат : AC-3
Формат/Информация : Audio Coding 3
Расширение режима : CM (complete main)
Режим смешивания : DVD-Video
Продолжительность : 24 м.
Вид битрейта : Постоянный
Битрейт : 448 Кбит/сек
Каналы : 6 каналов
Расположение каналов : Front: L C R, Side: L R, LFE
Частота : 48,0 КГц
Битовая глубина : 16 бит
Метод сжатия : С потерями
Размер потока : 79,8 Мбайт (8%)

Аудио #2
Идентификатор : 189 (0xBD)-129 (0x81)
Формат : AC-3
Формат/Информация : Audio Coding 3
Расширение режима : CM (complete main)
Режим смешивания : DVD-Video
Продолжительность : 24 м.
Вид битрейта : Постоянный
Битрейт : 384 Кбит/сек
Каналы : 6 каналов
Расположение каналов : Front: L C R, Side: L R, LFE
Частота : 48,0 КГц
Битовая глубина : 16 бит
Метод сжатия : С потерями
Размер потока : 68,4 Мбайт (7%)

Меню
Свернуть

"Скриншоты"
Изображение
Изображение
Изображение
Изображение
Изображение
Изображение
Изображение
Изображение
Изображение

Изображение
Свернуть
_________________
Изображение


Последний раз редактировалось Slovetskii 2013-01-11 21:48, всего редактировалось 2 раз(а).
Не в сети
Профиль  
 Добавлено: 2013-01-11 11:24 (спустя 13 часов)
DVD Release Group
Аватара пользователя
Стаж: 7 лет 1 месяц
Сообщений: 3550
Спасибок: 247138
Лайков: 1018
Slovetskii исправьте тех.данные и скриншоты:
Видео: 720x480 23,98fps 4799Kbps
Аудио:
Аудио Rus: 48kHz 6ch 384Kbps
Аудио Eng: 48kHz 6ch 448Kbps
"MediaInfo"
Формат : MPEG-PS
Размер файла : 1024 Мбайт
Продолжительность : 24 м.
Режим общего битрейта : Переменный
Общий поток : 5745 Кбит/сек
Библиотека кодирования : encoded by TMPGEnc Authoring Works 5 Version. 5.0.8.26

Видео
Идентификатор : 224 (0xE0)
Формат : MPEG Video
Версия формата : Version 2
Профиль формата : Main@Main
Параметр BVOP формата : Да
Параметр матрицы формата : Выборочная
Продолжительность : 24 м.
Вид битрейта : Переменный
Битрейт : 4799 Кбит/сек
Максимальный битрейт : 8000 Кбит/сек
Ширина : 720 пикселей
Высота : 480 пикселей
Соотношение сторон : 16:9
Частота кадров : 23,976 кадра/сек
Стандарт вещания : NTSC
Цветовое пространство : YUV
Субдискретизация насыщенности : 4:2:0
Битовая глубина : 8 бит
Тип развёртки : Прогрессивная
Порядок развёртки : 2:3 Pulldown
Метод сжатия : С потерями
Бит/(Пиксели*Кадры) : 0.579
Размер потока : 855 Мбайт (84%)
Библиотека кодирования : TMPGEnc Authoring Works 5 Version. 5.0.8.26
Основные цвета : SMPTE 170M
Характеристики трансфера : SMPTE 170M
Коэффициенты матрицы : SMPTE 170M

Аудио #1
Идентификатор : 189 (0xBD)-128 (0x80)
Формат : AC-3
Формат/Информация : Audio Coding 3
Расширение режима : CM (complete main)
Режим смешивания : DVD-Video
Продолжительность : 24 м.
Вид битрейта : Постоянный
Битрейт : 448 Кбит/сек
Каналы : 6 каналов
Расположение каналов : Front: L C R, Side: L R, LFE
Частота : 48,0 КГц
Битовая глубина : 16 бит
Метод сжатия : С потерями
Размер потока : 79,8 Мбайт (8%)

Аудио #2
Идентификатор : 189 (0xBD)-129 (0x81)
Формат : AC-3
Формат/Информация : Audio Coding 3
Расширение режима : CM (complete main)
Режим смешивания : DVD-Video
Продолжительность : 24 м.
Вид битрейта : Постоянный
Битрейт : 384 Кбит/сек
Каналы : 6 каналов
Расположение каналов : Front: L C R, Side: L R, LFE
Частота : 48,0 КГц
Битовая глубина : 16 бит
Метод сжатия : С потерями
Размер потока : 68,4 Мбайт (7%)

Меню
Свернуть

"Скриншоты"
Изображение
Изображение
Изображение
Изображение
Изображение
Изображение
Изображение
Изображение
Изображение

Изображение
Свернуть
Не в сети
Профиль  
 Добавлено: 2013-01-11 21:48 (спустя 10 часов)
Модератор релиз-группы
Аватара пользователя
Стаж: 6 лет 5 месяцев
Возраст: 25
Сообщений: 622
Спасибок: 10257
Лайков: 7
rastor
Вай, спасибоу!
_________________
Изображение
Не в сети
Профиль  
 Добавлено: 2013-03-02 09:18 (спустя 1 месяц 21 день)
Модератор
Аватара пользователя
Стаж: 8 лет 11 месяцев
Сообщений: 516
Спасибок: 26888
Лайков: 1
viewtopic.php?f=1746&t=499270
Не в сети
Профиль  
Начать новую темуОтветить на тему  [ Сообщений: 4 ] 
Вы не можете начинать темы
Вы не можете отвечать на сообщения
Вы не можете редактировать свои сообщения
Вы не можете удалять свои сообщения