Правила форума

Здесь находятся раздачи, на которых не было полного источника (сида) более месяца.
Вы можете вернуть релиз в соответствующий раздел, для этого напишите нам в специальной теме и встаньте на раздачу.
Новые релизы, повторяющие релизы в архиве, повторами не считаются.
Начать новую темуОтветить на тему  [ Сообщений: 11 ] 
Сообщения
 Добавлено: 2012-12-23 08:53
Модератор
Аватара пользователя
Стаж: 6 лет 10 месяцев
Возраст: 33
Сообщений: 5908
Спасибок: 61256
Лайков: 3540
Изображение

Заложница 2
Taken 2


Год выпуска: 2012
Страна: Франция
Слоган: «First they took his daughter. Now they're coming for him.»
Жанр: боевик, триллер, криминал
Продолжительность: 01:32:39
Перевод: Профессиональный (полное дублирование) [Чистый звук]
Режиссер: Оливье Мегатон
Сценарий: Люк Бессон, Роберт Марк Кэмен
Продюсер: Люк Бессон, Дилой Гюлюн, Мишель Мандавилль
Оператор: Ромейн Лакурбас
Композитор: Натэниел Мекали
В ролях: Лиам Нисон, Владимир Антоник, Мэгги Грэйс, Мария Иващенко, Фамке Янссен, Ольга Зубкова, Лиленд Орсер, Андрей Казанцев, Джон Грайз, Д.Б. Суини, Олег Щербинин, Люк Граймс
Бюджет: $45 000 000
Сборы в США: $138 265 100
Сборы в России: $4 065 250
Сборы в мире: $363 498 446
Описание: Брайану Миллсу придется расхлебывать последствия своих действий. Спасая свою дочь, он убил главаря банды, у которого - сюрприз! - есть отец по имени Мурад. Мурад жаждет отмщения и описывается как человек, отдающий приказы, но сам никогда никому не подчиняющийся. Мурад берет в заложники Миллса с супругой, и тут уже Ким Миллс нужно будет спасать своих родителей.
Изображение
MPAA: Изображение
Мировая премьера: 7 сентября 2012
Релиз на DVD: 4 февраля 2013, «Новый Диск»
Релиз на Blu-ray: 4 февраля 2013, «Новый Диск»
Раздача группы: Изображение
Качество: WEB-DL 1080p
Формат: AVI
Видео: 1916 x 800 (2.395) at 23.976 fps, AVC at 4380 Кбит/сек
Аудио: Russian 6 канала(ов), AC-3 at 448 Кбит/сек; Ukrainian, English 6 канала(ов), AC-3 at 384 Кбит/сек
Изображение
"Знаете ли Вы, что..."
  • Диего Бонета и Завьер Сэмюэл проходили прослушивание на роль, которая отошла Люку Граймсу.
Свернуть

"Media Info"
  • General
    Unique ID : 236387380663270424637433701627246725250 (0xB1D68DB17C51C25F88DFE906E960C882)
    Complete name : Taken.2.2012.1080@.WEB-DL.Rus.Ukr.Eng.GOLIAF.mkv
    Format : Matroska
    Format version : Version 2
    File size : 3.70 GiB
    Duration : 1h 32mn
    Overall bit rate : 5 709 Kbps
    Movie name : GOLIAF.TV
    Encoded date : UTC 2012-12-22 21:37:40
    Writing application : mkvmerge v5.6.0 ('Kenya Kane') built on May 27 2012 16:44:04
    Writing library : libebml v1.2.3 + libmatroska v1.3.0

    Video
    ID : 1
    Format : AVC
    Format/Info : Advanced Video Codec
    Format profile : High@L4.0
    Format settings, CABAC : Yes
    Format settings, ReFrames : 5 frames
    Codec ID : V_MPEG4/ISO/AVC
    Duration : 1h 32mn
    Bit rate : 4 380 Kbps
    Width : 1 916 pixels
    Height : 800 pixels
    Display aspect ratio : 2.40:1
    Frame rate mode : Constant
    Frame rate : 23.976 fps
    Color space : YUV
    Chroma subsampling : 4:2:0
    Bit depth : 8 bits
    Scan type : Progressive
    Bits/(Pixel*Frame) : 0.119
    Stream size : 2.83 GiB (77%)
    Language : English
    Default : No
    Forced : No
    Color primaries : BT.709
    Transfer characteristics : BT.709
    Matrix coefficients : BT.709

    Audio #1
    ID : 2
    Format : AC-3
    Format/Info : Audio Coding 3
    Mode extension : CM (complete main)
    Format settings, Endianness : Big
    Codec ID : A_AC3
    Duration : 1h 32mn
    Bit rate mode : Constant
    Bit rate : 448 Kbps
    Channel(s) : 6 channels
    Channel positions : Front: L C R, Side: L R, LFE
    Sampling rate : 48.0 KHz
    Bit depth : 16 bits
    Compression mode : Lossy
    Stream size : 297 MiB (8%)
    Title : AC3 5.1 @ 448 kbps - C1;8@>20==K9, R5
    Language : Russian
    Default : Yes
    Forced : Yes

    Audio #2
    ID : 3
    Format : AC-3
    Format/Info : Audio Coding 3
    Mode extension : CM (complete main)
    Format settings, Endianness : Big
    Codec ID : A_AC3
    Duration : 1h 32mn
    Bit rate mode : Constant
    Bit rate : 384 Kbps
    Channel(s) : 6 channels
    Channel positions : Front: L C R, Side: L R, LFE
    Sampling rate : 48.0 KHz
    Bit depth : 16 bits
    Compression mode : Lossy
    Stream size : 255 MiB (7%)
    Title : AC3 5.1 @ 384 kbps - =>3>3>;>AK9 70:04@>2K9, =
    Language : Ukrainian
    Default : No
    Forced : No

    Audio #3
    ID : 4
    Format : AC-3
    Format/Info : Audio Coding 3
    Mode extension : CM (complete main)
    Format settings, Endianness : Big
    Codec ID : A_AC3
    Duration : 1h 32mn
    Bit rate mode : Constant
    Bit rate : 384 Kbps
    Channel(s) : 6 channels
    Channel positions : Front: L C R, Side: L R, LFE
    Sampling rate : 48.0 KHz
    Bit depth : 16 bits
    Compression mode : Lossy
    Stream size : 255 MiB (7%)
    Title : AC3 5.1 @ 384 kbps
    Language : English
    Default : No
    Forced : No

    Menu
    00:00:00.000 : en:Chapter 1
    00:04:16.000 : en:Chapter 2
    00:07:24.000 : en:Chapter 3
    00:08:51.000 : en:Chapter 4
    00:12:45.000 : en:Chapter 5
    00:16:00.000 : en:Chapter 6
    00:19:41.000 : en:Chapter 7
    00:22:06.000 : en:Chapter 8
    00:25:11.000 : en:Chapter 9
    00:30:23.000 : en:Chapter 10
    00:34:48.000 : en:Chapter 11
    00:38:07.000 : en:Chapter 12
    00:41:29.000 : en:Chapter 13
    00:45:38.000 : en:Chapter 14
    00:50:36.000 : en:Chapter 15
    00:56:37.000 : en:Chapter 16
    01:00:21.000 : en:Chapter 17
    01:04:41.000 : en:Chapter 18
    01:07:07.000 : en:Chapter 19
    01:10:28.000 : en:Chapter 20
    01:15:44.000 : en:Chapter 21
    01:19:28.000 : en:Chapter 22
    01:23:06.000 : en:Chapter 23
    01:26:02.000 : en:Chapter 24
Свернуть

Скриншоты

Изображение

Изображение

Изображение

Изображение

Изображение
Свернуть
_________________
ИзображениеИзображение Изображение
Изображение


Последний раз редактировалось rotametr 2012-12-24 20:52, всего редактировалось 2 раз(а).
 tany1984 нравится это.
Не в сети
Профиль  
 Добавлено: 2012-12-23 09:55 (спустя 1 час 2 минуты)
Руководитель релиз-группы
Аватара пользователя
Стаж: 7 лет 4 месяца
Возраст: 31
Сообщений: 3407
Спасибок: 46729
Лайков: 5
:co_ol:
ждем BDRip, 1080 :)
Не в сети
Профиль  
 Добавлено: 2012-12-23 10:04 (спустя 9 минут)
Модератор
Аватара пользователя
Стаж: 6 лет 10 месяцев
Возраст: 33
Сообщений: 5908
Спасибок: 61256
Лайков: 3540

askboy:

:co_ol:
ждем BDRip, 1080 :)
:-ok-:
_________________
ИзображениеИзображение Изображение
Изображение
Не в сети
Профиль  
 Добавлено: 2012-12-23 11:55 (спустя 1 час 50 минут)
Инквизитор
Аватара пользователя
Стаж: 8 лет 9 месяцев
Возраст: 25
Сообщений: 2537
Спасибок: 3227
Лайков: 33
Качество: WEB-DL 1080p
Видео: 1916 x 800
:du_ma_et:
_________________
Изображение Изображение
Не в сети
Профиль  
 Добавлено: 2012-12-23 12:03 (спустя 8 минут)
Модератор
Аватара пользователя
Стаж: 9 лет
Сообщений: 3446
Спасибок: 1556
Лайков: 77

askboy:

ждем BDRip, 1080
А когда ждем? :-D
_________________
Пока тут пусто.
Не в сети
Профиль  
 Добавлено: 2012-12-23 16:21 (спустя 4 часа)
Руководитель релиз-группы
Аватара пользователя
Стаж: 7 лет 4 месяца
Возраст: 31
Сообщений: 3407
Спасибок: 46729
Лайков: 5
uran2005
в январе :)
Не в сети
Профиль  
 Добавлено: 2012-12-23 16:54 (спустя 32 минуты)
Модератор
Аватара пользователя
Стаж: 9 лет
Сообщений: 3446
Спасибок: 1556
Лайков: 77
Ууууууу придется так смотреть :(
_________________
Пока тут пусто.
Не в сети
Профиль  
 Добавлено: 2012-12-23 19:49 (спустя 2 часа 55 минут)
Стаж: 8 лет 3 месяца
Сообщений: 36
Спасибок: 12
качество видоза нормальное... а вот сам фильм УГ. То ли операторы, то ли постановщики сцен криворукие... такое ощущение, что сцены боев сляпали кусками где чо лучше....
Не в сети
Профиль  
 Добавлено: 2012-12-23 22:42 (спустя 2 часа 52 минуты)
Модератор
Аватара пользователя
Стаж: 9 лет
Сообщений: 3446
Спасибок: 1556
Лайков: 77
Да норм кинечик, можно без облома посмотреть :)
_________________
Пока тут пусто.
Не в сети
Профиль  
 Добавлено: 2012-12-24 20:10 (спустя 21 час)
Модератор
Аватара пользователя
Стаж: 8 лет 1 месяц
Сообщений: 1991
Спасибок: 129863
Лайков: 20
Здесь Чистый звук, не лицензия.
_________________
Себе ты можешь не качать, но раздавать другим обязан!
Не в сети
Профиль  
 Добавлено: 2013-02-07 16:57 (спустя 1 месяц 13 дней)
Модератор
Аватара пользователя
Стаж: 8 лет 11 месяцев
Сообщений: 516
Спасибок: 26888
Лайков: 1
viewtopic.php?f=1743&t=498989
Не в сети
Профиль  
Начать новую темуОтветить на тему  [ Сообщений: 11 ] 
Вы не можете начинать темы
Вы не можете отвечать на сообщения
Вы не можете редактировать свои сообщения
Вы не можете удалять свои сообщения