Правила форума

Здесь находятся раздачи, на которых не было полного источника (сида) более месяца.
Вы можете вернуть релиз в соответствующий раздел, для этого напишите нам в специальной теме и встаньте на раздачу.
Новые релизы, повторяющие релизы в архиве, повторами не считаются.
Начать новую темуОтветить на тему  [ Сообщений: 3 ] 
Сообщения
 Добавлено: 2012-12-23 09:26
Модератор
Аватара пользователя
Стаж: 6 лет 10 месяцев
Возраст: 33
Сообщений: 5908
Спасибок: 61241
Лайков: 3540
Изображение

Заложница 2
Taken 2


Год выпуска: 2012
Страна: Франция
Слоган: «First they took his daughter. Now they're coming for him.»
Жанр: боевик, триллер, криминал
Продолжительность: 01:32:39
Перевод: Профессиональный (полное дублирование) [Чистый звук]
Режиссер: Оливье Мегатон
Сценарий: Люк Бессон, Роберт Марк Кэмен
Продюсер: Люк Бессон, Дилой Гюлюн, Мишель Мандавилль
Оператор: Ромейн Лакурбас
Композитор: Натэниел Мекали
В ролях: Лиам Нисон, Владимир Антоник, Мэгги Грэйс, Мария Иващенко, Фамке Янссен, Ольга Зубкова, Лиленд Орсер, Андрей Казанцев, Джон Грайз, Д.Б. Суини, Олег Щербинин, Люк Граймс
Бюджет: $45 000 000
Сборы в США: $138 265 100
Сборы в России: $4 065 250
Сборы в мире: $363 498 446
Описание: Брайану Миллсу придется расхлебывать последствия своих действий. Спасая свою дочь, он убил главаря банды, у которого - сюрприз! - есть отец по имени Мурад. Мурад жаждет отмщения и описывается как человек, отдающий приказы, но сам никогда никому не подчиняющийся. Мурад берет в заложники Миллса с супругой, и тут уже Ким Миллс нужно будет спасать своих родителей.
Изображение
MPAA: Изображение
Мировая премьера: 7 сентября 2012
Релиз на DVD: 4 февраля 2013, «Новый Диск»
Релиз на Blu-ray: 4 февраля 2013, «Новый Диск»
Раздача группы: Изображение
Качество: WEBDLRip-AVC 720р
Формат: MKV
Видео: 3834 kb/s, 1280x534
Аудио: Rus: AC3, 448 kb/s (6 ch)
Аудио: Ukr: AC3, 384 kb/s (6 ch) - Профессиональный (многоголосый закадровый) - "Омикрон"
Аудио: Eng: AC3 5.1 @ 384 kbps
Изображение
"Знаете ли Вы, что..."
  • Диего Бонета и Завьер Сэмюэл проходили прослушивание на роль, которая отошла Люку Граймсу.
Свернуть

"Media Info"
  • Общее
    Уникальный идентификатор : 253994383742714914327790698832680917742 (0xBF1589F7AF6FB2648D9BCCBB083F1AEE)
    Полное имя : D:Taken.2.2012.720р.WEB-DL.Rus.mkv
    Формат : Matroska
    Размер файла : 3,33 Гбайт
    Продолжительность : 1 ч. 32 м.
    Общий поток : 5152 Кбит/сек
    Название фильма : GOLIAF
    Дата кодирования : UTC 2012-12-22 20:58:17
    Программа кодирования : mkvmerge v5.6.0 ('Kenya Kane') built on May 27 2012 16:44:04
    Библиотека кодирования : libebml v1.2.3 + libmatroska v1.3.0

    Видео
    Идентификатор : 1
    Формат : AVC
    Формат/Информация : Advanced Video Codec
    Профиль формата : Main@L3.1
    Параметр CABAC формата : Нет
    Параметр ReFrames формата : 2 кадра
    Параметры GOP формата : M=2, N=52
    Идентификатор кодека : V_MPEG4/ISO/AVC
    Продолжительность : 1 ч. 32 м.
    Битрейт : 3834 Кбит/сек
    Ширина : 1280 пикс.
    Высота : 534 пикс.
    Соотношение сторон : 2,35:1
    Частота кадров : 23,976 кадр/сек
    Цветовое пространство : YUV
    Подвыборка цветности : 4:2:0
    Битовая глубина : 8 бит
    Тип развёртки : Прогрессивная
    Бит/(Пиксели*Кадры) : 0.234
    Размер потока : 2,48 Гбайт (74%)
    Заголовок : Release for GOLIAF
    Язык : English
    Основные цвета : BT.709-5, BT.1361, IEC 61966-2-4, SMPTE RP177
    Характеристики трансфера : BT.709-5, BT.1361
    Коэффициенты матрицы : BT.709-5, BT.1361, IEC 61966-2-4 709, SMPTE RP177

    Аудио #1
    Идентификатор : 2
    Формат : AC-3
    Формат/Информация : Audio Coding 3
    Расширение режима : CM (complete main)
    Идентификатор кодека : A_AC3
    Продолжительность : 1 ч. 32 м.
    Вид битрейта : Постоянный
    Битрейт : 448 Кбит/сек
    Каналы : 6 каналов
    Расположение каналов : Front: L C R, Side: L R, LFE
    Частота : 48,0 КГц
    Битовая глубина : 16 бит
    Метод сжатия : С потерями
    Размер потока : 297 Мбайт (9%)
    Заголовок : AC3 5.1 @ 448 kbps - Дублированный, R5
    Язык : Russian

    Аудио #2
    Идентификатор : 3
    Формат : AC-3
    Формат/Информация : Audio Coding 3
    Расширение режима : CM (complete main)
    Идентификатор кодека : A_AC3
    Продолжительность : 1 ч. 32 м.
    Вид битрейта : Постоянный
    Битрейт : 384 Кбит/сек
    Каналы : 6 каналов
    Расположение каналов : Front: L C R, Side: L R, LFE
    Частота : 48,0 КГц
    Битовая глубина : 16 бит
    Метод сжатия : С потерями
    Размер потока : 255 Мбайт (7%)
    Заголовок : AC3 5.1 @ 384 kbps - Многоголосый закадровый, Омикрон
    Язык : Ukrainian

    Аудио #3
    Идентификатор : 4
    Формат : AC-3
    Формат/Информация : Audio Coding 3
    Расширение режима : CM (complete main)
    Идентификатор кодека : A_AC3
    Продолжительность : 1 ч. 32 м.
    Вид битрейта : Постоянный
    Битрейт : 384 Кбит/сек
    Каналы : 6 каналов
    Расположение каналов : Front: L C R, Side: L R, LFE
    Частота : 48,0 КГц
    Битовая глубина : 16 бит
    Метод сжатия : С потерями
    Размер потока : 255 Мбайт (7%)
    Заголовок : AC3 5.1 @ 384 kbps
    Язык : English

    Меню
    00:00:00.000 : en:Chapter 1
    00:04:16.000 : en:Chapter 2
    00:07:24.000 : en:Chapter 3
    00:08:51.000 : en:Chapter 4
    00:12:45.000 : en:Chapter 5
    00:16:00.000 : en:Chapter 6
    00:19:41.000 : en:Chapter 7
    00:22:06.000 : en:Chapter 8
    00:25:11.000 : en:Chapter 9
    00:30:23.000 : en:Chapter 10
    00:34:48.000 : en:Chapter 11
    00:38:07.000 : en:Chapter 12
    00:41:29.000 : en:Chapter 13
    00:45:38.000 : en:Chapter 14
    00:50:36.000 : en:Chapter 15
    00:56:37.000 : en:Chapter 16
    01:00:21.000 : en:Chapter 17
    01:04:41.000 : en:Chapter 18
    01:07:07.000 : en:Chapter 19
    01:10:28.000 : en:Chapter 20
    01:15:44.000 : en:Chapter 21
    01:19:28.000 : en:Chapter 22
    01:23:06.000 : en:Chapter 23
    01:26:02.000 : en:Chapter 24
Свернуть

Скриншоты

Изображение

Изображение

Изображение

Изображение
Свернуть
_________________
ИзображениеИзображение Изображение
Изображение


Последний раз редактировалось rotametr 2012-12-24 20:43, всего редактировалось 1 раз.
 tany1984 и di-ys1 нравится это.
Не в сети
Профиль  
 Добавлено: 2012-12-24 11:18 (спустя 1 день 1 час)
Аватара пользователя
Стаж: 8 лет 7 месяцев
Возраст: 34
Сообщений: 115
Лайков: 3
спасибо !
Не в сети
Профиль  
 Добавлено: 2013-02-07 16:56 (спустя 1 месяц 14 дней)
Модератор
Аватара пользователя
Стаж: 8 лет 11 месяцев
Сообщений: 516
Спасибок: 26888
Лайков: 1
viewtopic.php?f=1743&t=498989
Не в сети
Профиль  
Начать новую темуОтветить на тему  [ Сообщений: 3 ] 
Вы не можете начинать темы
Вы не можете отвечать на сообщения
Вы не можете редактировать свои сообщения
Вы не можете удалять свои сообщения