Правила форума

Здесь находятся раздачи, на которых не было полного источника (сида) более месяца.
Вы можете вернуть релиз в соответствующий раздел, для этого напишите нам в специальной теме и встаньте на раздачу.
Новые релизы, повторяющие релизы в архиве, повторами не считаются.
Начать новую темуОтветить на тему  [ Сообщений: 6 ] 
Сообщения
 Добавлено: 2013-01-02 08:58
Аватара пользователя
Стаж: 5 лет 4 месяца
Возраст: 26
Сообщений: 1658
Спасибок: 45808
Лайков: 69
Заложница 2 / Taken 2


«Сначала они взяли его дочь. Теперь они прибывают для него.».

Изображение
Год выпуска: 2012
Страна: Изображение
Жанр: Боевик, Триллер, Криминал
Продолжительность: 01:32:40
Перевод: Дублированный (Line)

Режиссёр: Оливье Мегатон

Сценарий: Люк Бессон, Роберт Марк Кэмен

Продюсер: Люк Бессон, Дилой Гюлюн, Мишель Мандавилль

Оператор: Ромейн Лакурбас

Композитор: Натэниел Мекали

Xудожник: Себастьен Инизан, Нэнси Робертс, Атилла Йилмаз

В ролях: Лиам Нисон , Мэгги Грэйс, Фамке Янссен, Лиленд Орсер, Джон Грайз, Д.Б. Суини, Люк Граймс, Раде Шербеджия, Кеворк Маликян, Ален Фиглаж


Описание: Брайану Миллсу придется расхлебывать последствия своих действий. Спасая свою дочь, он убил главаря банды, у которого — сюрприз! — есть отец по имени Мурад. Мурад жаждет отмщения и описывается как человек, отдающий приказы, но сам никогда никому не подчиняющийся. Мурад берет в заложники Миллса с супругой, и тут уже Ким Миллс нужно будет спасать своих родителей.



Изображение



Сборы в США: $138 897 494
Сборы в России: $4 065 250
Мировая премьера:7 сентября 2012
Российский прокат:4 октября
Релиз на DVD:4 февраля 2013, «Новый Диск»
Релиз на Blu-Ray:4 февраля 2013, «Новый Диск»

Качество: BDRip 1080p - [Исходник Blu-Ray Remux China]
Формат: Matroska
Видео: 1916x800ь , MPEG-4 AVC/H.264,10000 Кбит/сек
Аудио1: Русский, AC3, 48 KHz, 6 ch, 448 kbps - (Дубляж Line)
Аудио2: Украинский, AC3, 48 KHz, 6 ch, 448 kbps - (Многоголосый - UKR - Студия "Омикрон")
Аудио3: Английский, AC3, 48 KHz, 6 ch, 448 kbps - (Оригинал - ENG)


Изображение


Спектр Звука
Изображение
Свернуть

MediaInfo
Общее
Уникальный идентификатор : 220710634340172070828287019577941679947 (0xA60B526CC286D6B286A08A2025FBDF4B)
Полное имя : Заложница 2.2012.x264.BDRip.1080p.mkv
Формат : Matroska
Версия формата : Version 4 / Version 2
Размер файла : 7,34 Гбайт
Продолжительность : 1 ч. 32 м.
Общий поток : 11,3 Мбит/сек
Название фильма : Zalozhnica.2.2012.x264.BDRip.1080p
Дата кодирования : UTC 2010-02-22 21:41:31
Программа кодирования : mkvmerge v5.9.0 ('On The Loose') built on Dec 9 2012 15:37:01
Библиотека кодирования : libebml v1.3.0 + libmatroska v1.4.0
Attachment : Yes

Видео
Идентификатор : 1
Формат : AVC
Формат/Информация : Advanced Video Codec
Профиль формата : High@L5.1
Параметр CABAC формата : Да
Параметр ReFrames формата : 4 кадра
Режим смешивания : Header stripping
Идентификатор кодека : V_MPEG4/ISO/AVC
Продолжительность : 1 ч. 32 м.
Битрейт : 10000 Кбит/сек
Ширина : 1916 пикселей
Высота : 800 пикселей
Соотношение сторон : 2,40:1
Режим частоты кадров : Постоянный
Частота кадров : 23,976 кадра/сек
Цветовое пространство : YUV
Субдискретизация насыщенности : 4:2:0
Битовая глубина : 8 бит
Тип развёртки : Прогрессивная
Бит/(Пиксели*Кадры) : 0.272
Размер потока : 6,32 Гбайт (86%)
Заголовок : Zalozhnica.2.2012.x264.BDRip.1080p
Библиотека кодирования : x264 core 129 r2230 1cffe9f
Настройки программы : cabac=1 / ref=3 / deblock=1:0:0 / analyse=0x3:0x113 / me=hex / subme=7 / psy=1 / psy_rd=1.00:0.00 / mixed_ref=1 / me_range=16 / chroma_me=1 / trellis=1 / 8x8dct=1 / cqm=0 / deadzone=21,11 / fast_pskip=1 / chroma_qp_offset=-2 / threads=6 / lookahead_threads=1 / sliced_threads=0 / nr=0 / decimate=1 / interlaced=0 / bluray_compat=0 / constrained_intra=0 / bframes=3 / b_pyramid=2 / b_adapt=1 / b_bias=0 / direct=1 / weightb=1 / open_gop=0 / weightp=2 / keyint=240 / keyint_min=23 / scenecut=40 / intra_refresh=0 / rc_lookahead=40 / rc=2pass / mbtree=1 / bitrate=10000 / ratetol=1.0 / qcomp=0.60 / qpmin=0 / qpmax=69 / qpstep=4 / cplxblur=20.0 / qblur=0.5 / ip_ratio=1.40 / aq=1:1.00
Язык : English
Default : Да
Forced : Да

Аудио #1
Идентификатор : 2
Формат : AC-3
Формат/Информация : Audio Coding 3
Расширение режима : CM (complete main)
Параметр Endianness формата : Big
Режим смешивания : Header stripping
Идентификатор кодека : A_AC3
Продолжительность : 1 ч. 32 м.
Вид битрейта : Постоянный
Битрейт : 448 Кбит/сек
Каналы : 6 каналов
Расположение каналов : Front: L C R, Side: L R, LFE
Частота : 48,0 КГц
Битовая глубина : 16 бит
Метод сжатия : С потерями
Размер потока : 297 Мбайт (4%)
Заголовок : DUB - RUS - LINE
Язык : Russian
Default : Да
Forced : Да

Аудио #2
Идентификатор : 3
Формат : AC-3
Формат/Информация : Audio Coding 3
Расширение режима : CM (complete main)
Параметр Endianness формата : Big
Режим смешивания : Header stripping
Идентификатор кодека : A_AC3
Продолжительность : 1 ч. 32 м.
Вид битрейта : Постоянный
Битрейт : 448 Кбит/сек
Каналы : 6 каналов
Расположение каналов : Front: L C R, Side: L R, LFE
Частота : 48,0 КГц
Битовая глубина : 16 бит
Метод сжатия : С потерями
Размер потока : 297 Мбайт (4%)
Заголовок : MVO - UKR - OMIKRON
Язык : Ukrainian
Default : Нет
Forced : Нет

Аудио #3
Идентификатор : 4
Формат : AC-3
Формат/Информация : Audio Coding 3
Расширение режима : CM (complete main)
Параметр Endianness формата : Big
Режим смешивания : Header stripping
Идентификатор кодека : A_AC3
Продолжительность : 1 ч. 32 м.
Вид битрейта : Постоянный
Битрейт : 448 Кбит/сек
Каналы : 6 каналов
Расположение каналов : Front: L C R, Side: L R, LFE
Частота : 48,0 КГц
Битовая глубина : 16 бит
Метод сжатия : С потерями
Размер потока : 297 Мбайт (4%)
Заголовок : Oiriginal - ENG
Язык : English
Default : Нет
Forced : Нет

Текст #1
Идентификатор : 5
Формат : UTF-8
Идентификатор кодека : S_TEXT/UTF8
Идентификатор кодека/Информация : UTF-8 Plain Text
Заголовок : Full - ENG
Язык : English
Default : Нет
Forced : Нет

Текст #2
Идентификатор : 6
Формат : UTF-8
Идентификатор кодека : S_TEXT/UTF8
Идентификатор кодека/Информация : UTF-8 Plain Text
Заголовок : SDH - ENG
Язык : English
Default : Нет
Forced : Нет

Меню
00:00:00.000 : en:Chapter 1
00:04:16.000 : en:Chapter 2
00:07:24.000 : en:Chapter 3
00:08:51.000 : en:Chapter 4
00:12:45.000 : en:Chapter 5
00:16:00.000 : en:Chapter 6
00:19:41.000 : en:Chapter 7
00:22:06.000 : en:Chapter 8
00:25:11.000 : en:Chapter 9
00:30:23.000 : en:Chapter 10
00:34:48.000 : en:Chapter 11
00:38:07.000 : en:Chapter 12
00:41:29.000 : en:Chapter 13
00:45:38.000 : en:Chapter 14
00:50:36.000 : en:Chapter 15
00:56:37.000 : en:Chapter 16
01:00:21.000 : en:Chapter 17
01:04:41.000 : en:Chapter 18
01:07:07.000 : en:Chapter 19
01:10:28.000 : en:Chapter 20
01:15:44.000 : en:Chapter 21
01:19:28.000 : en:Chapter 22
01:23:06.000 : en:Chapter 23
01:26:02.000 : en:Chapter 24
Свернуть

Трейлер
Свернуть

Скриншоты
Изображение
Изображение
Изображение
Свернуть
_________________
S.T.A.L.K.E.R.: Lost Alpha
Не в сети
Профиль  
 Добавлено: 2013-01-02 10:26 (спустя 1 час 28 минут)
Аватара пользователя
Стаж: 8 лет
Сообщений: 140
Спасибок: 51
заценим
_________________
Изображение 6 мB/s Изображение 600 kB/s
Изображение
Не в сети
Профиль  
 Добавлено: 2013-01-06 13:23 (спустя 4 дня)
Аватара пользователя
Стаж: 5 лет 4 месяца
Возраст: 26
Сообщений: 1658
Спасибок: 45808
Лайков: 69
Martinus
:-ok-:
_________________
S.T.A.L.K.E.R.: Lost Alpha
Не в сети
Профиль  
 Добавлено: 2013-01-08 21:15 (спустя 2 дня 7 часов)
Аватара пользователя
Стаж: 7 лет 1 месяц
Сообщений: 5
Первая часть, как обычно, оказалась на много лучше. Фильм притянут за уши. А погоня на неубиваемой тачке - такси... просто слов нет. :)-(:
Не в сети
Профиль  
 Добавлено: 2013-01-12 19:52 (спустя 3 дня)
Стаж: 3 года 11 месяцев
Сообщений: 101
СПАСИБО!
Не в сети
Профиль  
 Добавлено: 2013-02-07 16:56 (спустя 25 дней)
Модератор
Аватара пользователя
Стаж: 8 лет 11 месяцев
Сообщений: 516
Спасибок: 26888
Лайков: 1
viewtopic.php?f=1743&t=498989
Не в сети
Профиль  
Начать новую темуОтветить на тему  [ Сообщений: 6 ] 
Вы не можете начинать темы
Вы не можете отвечать на сообщения
Вы не можете редактировать свои сообщения
Вы не можете удалять свои сообщения