Правила форума

Здесь находятся раздачи, на которых не было полного источника (сида) более месяца.
Вы можете вернуть релиз в соответствующий раздел, для этого напишите нам в специальной теме и встаньте на раздачу.
Новые релизы, повторяющие релизы в архиве, повторами не считаются.
Начать новую темуОтветить на тему  [ Сообщений: 2 ] 
Сообщения
 Добавлено: 2013-01-04 20:47
Модератор
Аватара пользователя
Стаж: 6 лет 10 месяцев
Возраст: 33
Сообщений: 5908
Спасибок: 61265
Лайков: 3540
Изображение

Заложница 2
Taken 2


Год выпуска: 2012
Страна: Франция
Слоган: «First they took his daughter. Now they're coming for him.»
Жанр: боевик, триллер, криминал
Продолжительность: 01:32:07 Театральная версия / Theatrical Cut
Перевод: Профессиональный (полное дублирование) [Чистый звук]
Режиссер: Оливье Мегатон
Сценарий: Люк Бессон, Роберт Марк Кэмен
Продюсер: Люк Бессон, Дилой Гюлюн, Мишель Мандавилль
Оператор: Ромейн Лакурбас
Композитор: Натэниел Мекали
В ролях: Лиам Нисон, Владимир Антоник, Мэгги Грэйс, Мария Иващенко, Фамке Янссен, Ольга Зубкова, Лиленд Орсер, Андрей Казанцев, Джон Грайз, Д.Б. Суини, Олег Щербинин, Люк Граймс
Бюджет: $45 000 000
Сборы в США: $138 265 100
Сборы в России: $4 065 250
Сборы в мире: $363 498 446
Описание: Брайану Миллсу придется расхлебывать последствия своих действий. Спасая свою дочь, он убил главаря банды, у которого - сюрприз! - есть отец по имени Мурад. Мурад жаждет отмщения и описывается как человек, отдающий приказы, но сам никогда никому не подчиняющийся. Мурад берет в заложники Миллса с супругой, и тут уже Ким Миллс нужно будет спасать своих родителей.
Изображение
MPAA: Изображение
Мировая премьера: 7 сентября 2012
Релиз на DVD: 4 февраля 2013, «Новый Диск»
Релиз на Blu-ray: 4 февраля 2013, «Новый Диск»
Раздача группы: Изображение
Качество: BDRip 720p
Формат: MKV
Видео: 9000 kb/s, 1280x536
Аудио: Russian: AC3, 384 kb/s (6 ch) / English: DTS, 1510 kb/s (6 ch)
"Знаете ли Вы, что..."
  • Диего Бонета и Завьер Сэмюэл проходили прослушивание на роль, которая отошла Люку Граймсу.
Свернуть

"Media Info"
  • General
    Unique ID : 212711089513438571281413122508919902392 (0xA006AA69FC6404D4A928B95A928790B8)
    Complete name : Taken.2.2012.BluRay.Theatrical.Cut.720p.x264-IRONCLUB.mkv
    Format : Matroska
    Format version : Version 2
    File size : 7.00 GiB
    Duration : 1h 32mn
    Overall bit rate : 10.9 Mbps
    Movie name : IRONCLUB
    Encoded date : UTC 2013-01-04 08:20:58
    Writing application : mkvmerge v5.2.0 ('I can't explain') built on Dec 18 2011 18:12:03
    Writing library : libebml v1.2.3 + libmatroska v1.3.0

    Video
    ID : 1
    Format : AVC
    Format/Info : Advanced Video Codec
    Format profile : High@L4.1
    Format settings, CABAC : Yes
    Format settings, ReFrames : 12 frames
    Codec ID : V_MPEG4/ISO/AVC
    Duration : 1h 32mn
    Bit rate : 9 000 Kbps
    Width : 1 280 pixels
    Height : 536 pixels
    Display aspect ratio : 2.40:1
    Frame rate : 23.976 fps
    Color space : YUV
    Chroma subsampling : 4:2:0
    Bit depth : 8 bits
    Scan type : Progressive
    Bits/(Pixel*Frame) : 0.547
    Stream size : 5.65 GiB (81%)
    Title : Taken 2 2012 Theatrical Cut 720p BluRay DTS x264-IRONCLUB
    Writing library : x264 core 129 r2230kMod 1cffe9f
    Encoding settings : cabac=1 / ref=12 / deblock=1:-3:-3 / analyse=0x3:0x113 / me=umh / subme=11 / psy=1 / fade_compensate=0.00 / psy_rd=1.10:0.05 / mixed_ref=1 / me_range=48 / chroma_me=1 / trellis=2 / 8x8dct=1 / cqm=0 / deadzone=21,11 / fast_pskip=0 / chroma_qp_offset=-3 / threads=12 / lookahead_threads=2 / sliced_threads=0 / nr=0 / decimate=1 / interlaced=0 / bluray_compat=0 / constrained_intra=0 / bframes=7 / b_pyramid=2 / b_adapt=2 / b_bias=0 / direct=3 / weightb=1 / open_gop=0 / weightp=2 / keyint=250 / keyint_min=23 / scenecut=40 / intra_refresh=0 / rc_lookahead=60 / rc=2pass / mbtree=0 / bitrate=9000 / ratetol=1.0 / qcomp=0.70 / qpmin=0 / qpmax=69 / qpstep=4 / cplxblur=20.0 / qblur=0.5 / vbv_maxrate=50000 / vbv_bufsize=62500 / nal_hrd=none / ip_ratio=1.25 / pb_ratio=1.25 / aq=1:0.85
    Language : English
    Default : Yes
    Forced : Yes
    Matrix coefficients : BT.709-5, BT.1361, IEC 61966-2-4 709, SMPTE RP177

    Audio #1
    ID : 2
    Format : AC-3
    Format/Info : Audio Coding 3
    Mode extension : CM (complete main)
    Format settings, Endianness : Big
    Codec ID : A_AC3
    Duration : 1h 32mn
    Bit rate mode : Constant
    Bit rate : 384 Kbps
    Channel(s) : 6 channels
    Channel positions : Front: L C R, Side: L R, LFE
    Sampling rate : 48.0 KHz
    Bit depth : 16 bits
    Compression mode : Lossy
    Stream size : 253 MiB (4%)
    Title : DD 5.1 @ 384 kbps - Dub
    Language : Russian
    Default : Yes
    Forced : Yes

    Audio #2
    ID : 3
    Format : DTS
    Format/Info : Digital Theater Systems
    Codec ID : A_DTS
    Duration : 1h 32mn
    Bit rate mode : Constant
    Bit rate : 1 510 Kbps
    Channel(s) : 6 channels
    Channel positions : Front: L C R, Side: L R, LFE
    Sampling rate : 48.0 KHz
    Bit depth : 24 bits
    Compression mode : Lossy
    Stream size : 995 MiB (14%)
    Title : DTS 5.1 @ 1536 kbps
    Language : English
    Default : No
    Forced : No

    Text #1
    ID : 4
    Format : UTF-8
    Codec ID : S_TEXT/UTF8
    Codec ID/Info : UTF-8 Plain Text
    Title : Forced
    Language : English
    Default : No
    Forced : No

    Text #2
    ID : 5
    Format : UTF-8
    Codec ID : S_TEXT/UTF8
    Codec ID/Info : UTF-8 Plain Text
    Title : SDH
    Language : English
    Default : No
    Forced : No

    Menu
    00:00:00.000 : en:00:00:00.000
    00:04:18.424 : en:00:04:18.424
    00:07:24.694 : en:00:07:24.694
    00:08:51.280 : en:00:08:51.280
    00:12:45.389 : en:00:12:45.389
    00:16:01.669 : en:00:16:01.669
    00:19:41.179 : en:00:19:41.179
    00:22:06.283 : en:00:22:06.283
    00:25:10.926 : en:00:25:10.926
    00:30:22.946 : en:00:30:22.946
    00:34:48.169 : en:00:34:48.169
    00:38:06.992 : en:00:38:06.992
    00:41:31.322 : en:00:41:31.322
    00:45:37.985 : en:00:45:37.985
    00:50:35.991 : en:00:50:35.991
    00:56:38.853 : en:00:56:38.853
    01:00:21.617 : en:01:00:21.617
    01:04:41.252 : en:01:04:41.252
    01:07:06.939 : en:01:07:06.939
    01:10:28.265 : en:01:10:28.265
    01:15:44.831 : en:01:15:44.831
    01:19:28.471 : en:01:19:28.471
    01:23:06.648 : en:01:23:06.648
    01:26:02.824 : en:01:26:02.824
Свернуть

Скриншоты

Изображение

Изображение

Изображение

Изображение
Свернуть
_________________
ИзображениеИзображение Изображение
Изображение
 tany1984 нравится это.
Не в сети
Профиль  
 Добавлено: 2013-02-07 16:55 (спустя 1 месяц 2 дня)
Модератор
Аватара пользователя
Стаж: 8 лет 11 месяцев
Сообщений: 516
Спасибок: 26888
Лайков: 1
viewtopic.php?f=1743&t=498989
Не в сети
Профиль  
Начать новую темуОтветить на тему  [ Сообщений: 2 ] 
Вы не можете начинать темы
Вы не можете отвечать на сообщения
Вы не можете редактировать свои сообщения
Вы не можете удалять свои сообщения