Правила форума

Здесь находятся раздачи, на которых не было полного источника (сида) более месяца.
Вы можете вернуть релиз в соответствующий раздел, для этого напишите нам в специальной теме и встаньте на раздачу.
Новые релизы, повторяющие релизы в архиве, повторами не считаются.
Начать новую темуОтветить на тему  [ Сообщений: 2 ] 
Сообщения
 Добавлено: 2012-07-22 16:32
Top-releaser
Аватара пользователя
Стаж: 6 лет 7 месяцев
Сообщений: 2078
Спасибок: 3230
Лайков: 9
Изображение

Замерзшая из Майами / New in Town


Год выпуска: 2008
Страна: США, Канада
Слоган: «Ветер, снег и ледяной прием. Судьба забросила ее чуть дальше, чем она планировала»
Жанр: мелодрама, комедия
Продолжительность: 01:36:49
Перевод: Профессиональный (полное дублирование)
Режиссер: Йонас Элмер
Сценарий: Кен Рэнс, С. Джей Кокс
Продюсер: Пол Брукс, Дэррил Тайя, Трэйси Е. Эдмондс, Филлис Лэйн, Эндрю Пакуин
Оператор: Крис Сигер
Композитор: Джон Шайхэрт
В ролях: Рене Зеллвегер, Гарри Конник мл., Шиван Фэллон, Дж.К. Симмонс, Майк О’Брайэн, Фрэнсис Конрой, Феррон Гуирейро, Барбара Джеймс Смит, Джеймс Дархэм, Роберт Смолл, Вейн Никлас, Хилари Кэрролл
Бюджет: $8 000 000
Сборы в мире: $29 010 817
Описание: Люси Хилл любит роскошные платья, дорогие машины и ей нравится карабкаться вверх по карьерной лестнице. Как-то раз из родного жаркого Майами ее отправляют в командировку в холодную Миннесоту. Чтобы выполнить задание, Люси должна приспособиться к суровому климату и к местным жителям, которые не собираются оказывать ей теплый прием.
Изображение
MPAA: Изображение
Раздача группы: Изображение

Качество: BDRip, 720p
Формат: Matroska
Видео: AVC; 1920x1080 (16:9); 9960 Kbps; 23,976 fps; 0,200 bit/pixel
Аудио №1: Russian; DTS; 754 Kbps; CBR; 6 ch; 24 bit
Аудио №2: English; DTS; 1509 Kbps; CBR; 6 ch; 24 bit
Субтитры: Russian, English
"Знаете ли Вы, что..."
  • Рабочим названием картины было «Замёрзшая в Майами» (“Chilled in Miami”), которое, чуть изменив, решили оставить российские прокатчики.
Свернуть
MediaInfo
Общее
Уникальный идентификатор : 246136137041981629482976056240007826020 (0xB92C187DFE1E545CA4FDF8CF20E04A64)
Полное имя : Z:\WWW\TR-Downloads\New in Town.1080p[R.G.Daredevil].mkv
Формат : Matroska
Версия формата : Version 2
Размер файла : 8,44 Гбайт
Продолжительность : 1 ч. 36 м.
Общий поток : 12,5 Мбит/сек
Дата кодирования : UTC 2009-05-14 07:06:57
Программа кодирования : mkvmerge v2.7.0 ('Do It Again') built on Apr 15 2009 00:27:10
Библиотека кодирования : libebml v0.7.7 + libmatroska v0.8.1

Видео
Идентификатор : 1
Формат : AVC
Формат/Информация : Advanced Video Codec
Профиль формата : High@L4.1
Параметр CABAC формата : Да
Параметр ReFrames формата : 4 кадра
Идентификатор кодека : V_MPEG4/ISO/AVC
Продолжительность : 1 ч. 36 м.
Битрейт : 10,2 Мбит/сек
Ширина : 1920 пикселей
Высота : 1080 пикселей
Соотношение сторон : 16:9
Частота кадров : 23,976 кадра/сек
Цветовое пространство : YUV
Субдискретизация насыщенности : 4:2:0
Битовая глубина : 8 бит
Тип развёртки : Прогрессивная
Бит/(Пиксели*Кадры) : 0.205
Размер потока : 6,74 Гбайт (80%)
Библиотека кодирования : x264 core 67 r1148 400740b
Настройки программы : cabac=1 / ref=4 / deblock=1:0:0 / analyse=0x3:0x133 / me=umh / subme=7 / psy_rd=1.0:0.0 / mixed_ref=1 / me_range=16 / chroma_me=1 / trellis=1 / 8x8dct=1 / cqm=0 / deadzone=21,11 / chroma_qp_offset=-2 / threads=12 / nr=0 / decimate=1 / mbaff=0 / bframes=3 / b_pyramid=1 / b_adapt=1 / b_bias=0 / direct=1 / wpredb=1 / keyint=250 / keyint_min=25 / scenecut=40 / rc=2pass / bitrate=10210 / ratetol=1.0 / qcomp=0.60 / qpmin=10 / qpmax=51 / qpstep=4 / cplxblur=20.0 / qblur=0.5 / ip_ratio=1.40 / pb_ratio=1.30 / aq=1:1.00
Язык : English
Default : Да
Forced : Нет

Аудио #1
Идентификатор : 2
Формат : DTS
Формат/Информация : Digital Theater Systems
Идентификатор кодека : A_DTS
Продолжительность : 1 ч. 36 м.
Вид битрейта : Постоянный
Битрейт : 755 Кбит/сек
Каналы : 6 каналов
Расположение каналов : Front: L C R, Side: L R, LFE
Частота : 48,0 КГц
Битовая глубина : 24 бит
Метод сжатия : С потерями
Размер потока : 523 Мбайт (6%)
Заголовок : DTS 5.1 768 kbps
Язык : Russian
Default : Да
Forced : Нет

Аудио #2
Идентификатор : 3
Формат : DTS
Формат/Информация : Digital Theater Systems
Идентификатор кодека : A_DTS
Продолжительность : 1 ч. 36 м.
Вид битрейта : Постоянный
Битрейт : 1510 Кбит/сек
Каналы : 6 каналов
Расположение каналов : Front: L C R, Side: L R, LFE
Частота : 48,0 КГц
Битовая глубина : 24 бит
Метод сжатия : С потерями
Размер потока : 1,02 Гбайт (12%)
Заголовок : DTS 5.1 1536 kbps
Язык : English
Default : Нет
Forced : Нет

Текст #1
Идентификатор : 4
Формат : UTF-8
Идентификатор кодека : S_TEXT/UTF8
Идентификатор кодека/Информация : UTF-8 Plain Text
Язык : Russian
Default : Нет
Forced : Нет

Текст #2
Идентификатор : 5
Формат : UTF-8
Идентификатор кодека : S_TEXT/UTF8
Идентификатор кодека/Информация : UTF-8 Plain Text
Язык : English
Default : Нет
Forced : Нет
Свернуть
Скриншоты
Изображение

Изображение

Изображение

Изображение

Изображение
Свернуть
Не в сети
Профиль  
 Добавлено: 2012-07-23 12:18 (спустя 19 часов)
Пользователь забанен
Аватара пользователя
Стаж: 7 лет
Сообщений: 230
Спасибок: 41
предсказуемо, но пойдет
Не в сети
Профиль  
Начать новую темуОтветить на тему  [ Сообщений: 2 ] 
Вы не можете начинать темы
Вы не можете отвечать на сообщения
Вы не можете редактировать свои сообщения
Вы не можете удалять свои сообщения