Правила форума

Здесь находятся раздачи, на которых не было полного источника (сида) более месяца.
Вы можете вернуть релиз в соответствующий раздел, для этого напишите нам в специальной теме и встаньте на раздачу.
Новые релизы, повторяющие релизы в архиве, повторами не считаются.
Начать новую темуОтветить на тему  [ Сообщений: 6 ] 
Сообщения
 Добавлено: 2011-12-20 21:09
Top-releaser
Аватара пользователя
Стаж: 8 лет 7 месяцев
Сообщений: 1286
Спасибок: 3420
Лайков: 7
Заражение / Contagion


«Скоро мир будет инфицирован.»

Изображение
Год выпуска: 2011
Страна: США, ОАЭ
Жанр: триллер, драма
Продолжительность: 01:46:26
Перевод: Профессиональный (полное дублирование)

Режиссер: Стивен Содерберг
Сценарий: Скотт Бёрнс
Продюсер: Грегори Джейкобс, Майкл Шамберг, Стейси Шер, Закария Алауи, Чу Чен Оун
Оператор: Стивен Содерберг
Композитор: Клифф Мартинес

В ролях: Марион Котийяр (Dr. Leonora Orantes), Мэтт Дэймон (Mitch Emhoff), Лоренс Фишбёрн (Dr. Ellis Cheever), Джуд Лоу (Alan Krumwiede), Гвинет Пэлтроу (Beth Emhoff), Кейт Уинслет (Dr. Erin Mears), Брайан Крэнстон (Lyle Haggerty), Дженнифер Эль (Dr. Ally Hextall), Санаа Лэтэн (Aubrey Cheever), Тинг Яу Цуй (Li Fai), Джози Хо (Li Fai's Sister), Дарья Строкоус (Irina)
Дублёры: Рамиля Искандер (Dr. Leonora Orantes), Борис Шувалов (Mitch Emhoff), Алексей Рязанцев (Dr. Ellis Cheever), Василий Дахненко (Alan Krumwiede), Людмила Шувалова (Beth Emhoff), Марианна Шульц (Dr. Erin Mears), Татьяна Шитова (Dr. Ally Hextall), Елена Борзунова (Aubrey Cheever), Станислав Стрелков (Roger), Ирина Пономарева, Александр Носков, Екатерина Африкантова

Описание: Международная организация врачей совместно с Центром по контролю и профилактике заболеваний США пытается помешать распространению смертельного вируса.

Релиз: Изображение Раздача: Изображение

Изображение
Изображение

Бюджет: $60 000 000
Сборы в США: $75 658 097
Сборы в России: $3 760 481
Сборы в мире: $135 458 097
Мировая премьера: 3 сентября 2011
Релиз на DVD: 26 января 2012, «CP-Digital»


Качество: BDRip
Формат: Matroska
Видео: AVC; 1280x720 (16:9); 5228 kbps; 23,976 fps; 0,237 bit/pixel
Аудио №1: Russian; AC3; 448 kbps; CBR; 6 channels; 16 bit
Аудио №2: English; DTS; 1509 kbps; CBR; 6 channels; 24 bit

Субтитры: English
Изображение
MediaInfo
Общее
Уникальный идентификатор : 227399762972739880062762459423677410281 (0xAB1399EDD9FC4686875DF8BF5328EBE9)
Полное имя : E:\Видео\Zarazhenie.2011.x264.BDRip(720p).mkv
Формат : Matroska
Версия формата : Version 2
Размер файла : 5,34 Гбайт
Продолжительность : 1 ч. 46 м.
Общий поток : 7186 Кбит/сек
Название фильма : --SCHUMAHER--
Дата кодирования : UTC 2011-12-20 15:33:29
Программа кодирования : mkvmerge v5.2.0 ('I can't explain') built on Dec 18 2011 18:12:03
Библиотека кодирования : libebml v1.2.3 + libmatroska v1.3.0

Видео
Идентификатор : 1
Формат : AVC
Формат/Информация : Advanced Video Codec
Профиль формата : High@L4.1
Параметр CABAC формата : Да
Параметр ReFrames формата : 9 кадров
Идентификатор кодека : V_MPEG4/ISO/AVC
Продолжительность : 1 ч. 46 м.
Битрейт : 5228 Кбит/сек
Ширина : 1280 пикселей
Высота : 720 пикселей
Соотношение сторон : 16:9
Частота кадров : 23,976 кадра/сек
Цветовое пространство : YUV
Субдискретизация насыщенности : 4:2:0
Битовая глубина : 8 бит
Тип развёртки : Прогрессивная
Бит/(Пиксели*Кадры) : 0.237
Размер потока : 3,78 Гбайт (71%)
Библиотека кодирования : x264 core 115 r2008 4c552d8
Настройки программы : cabac=1 / ref=9 / deblock=1:-3:-3 / analyse=0x3:0x113 / me=umh / subme=10 / psy=1 / psy_rd=1.10:0.15 / mixed_ref=1 / me_range=32 / chroma_me=1 / trellis=2 / 8x8dct=1 / cqm=2 / deadzone=21,11 / fast_pskip=0 / chroma_qp_offset=-2 / threads=12 / sliced_threads=0 / nr=0 / decimate=1 / interlaced=0 / bluray_compat=0 / constrained_intra=0 / bframes=6 / b_pyramid=2 / b_adapt=2 / b_bias=0 / direct=3 / weightb=1 / open_gop=0 / weightp=2 / keyint=250 / keyint_min=23 / scenecut=40 / intra_refresh=0 / rc_lookahead=60 / rc=2pass / mbtree=1 / bitrate=5228 / ratetol=1.0 / qcomp=0.60 / qpmin=1 / qpmax=63 / qpstep=4 / cplxblur=20.0 / qblur=0.5 / vbv_maxrate=40000 / vbv_bufsize=30000 / nal_hrd=none / ip_ratio=1.40 / aq=1:0.80
Язык : English
Default : Да
Forced : Да

Аудио #1
Идентификатор : 2
Формат : AC-3
Формат/Информация : Audio Coding 3
Расширение режима : CM (complete main)
Идентификатор кодека : A_AC3
Продолжительность : 1 ч. 46 м.
Вид битрейта : Постоянный
Битрейт : 448 Кбит/сек
Каналы : 6 каналов
Расположение каналов : Front: L C R, Side: L R, LFE
Частота : 48,0 КГц
Битовая глубина : 16 бит
Метод сжатия : С потерями
Задержка видео : 14 мс.
Размер потока : 341 Мбайт (6%)
Язык : Russian
Default : Да
Forced : Да

Аудио #2
Идентификатор : 3
Формат : DTS
Формат/Информация : Digital Theater Systems
Идентификатор кодека : A_DTS
Продолжительность : 1 ч. 46 м.
Вид битрейта : Постоянный
Битрейт : 1510 Кбит/сек
Каналы : 6 каналов
Расположение каналов : Front: L C R, Side: L R, LFE
Частота : 48,0 КГц
Битовая глубина : 24 бит
Метод сжатия : С потерями
Размер потока : 1,12 Гбайт (21%)
Язык : English
Default : Нет
Forced : Нет

Текст
Идентификатор : 4
Формат : UTF-8
Идентификатор кодека : S_TEXT/UTF8
Идентификатор кодека/Информация : UTF-8 Plain Text
Язык : English
Default : Нет
Forced : Нет

Меню
00:00:00.000 : en:
00:04:33.356 : en:
00:07:26.779 : en:
00:11:08.959 : en:
00:14:20.818 : en:
00:16:01.043 : en:
00:17:44.813 : en:
00:20:15.464 : en:
00:22:23.633 : en:
00:24:11.908 : en:
00:26:55.780 : en:
00:30:31.996 : en:
00:34:17.096 : en:
00:36:35.026 : en:
00:38:40.735 : en:
00:41:28.235 : en:
00:42:51.068 : en:
00:46:55.145 : en:
00:49:49.403 : en:
00:52:00.951 : en:
00:53:57.609 : en:
00:57:30.363 : en:
01:00:54.233 : en:
01:03:22.715 : en:
01:07:42.391 : en:
01:10:21.258 : en:
01:12:34.224 : en:
01:15:35.322 : en:
01:18:10.227 : en:
01:22:34.032 : en:
01:25:23.409 : en:
01:31:28.357 : en:
01:34:35.294 : en:
01:36:10.556 : en:
01:41:28.332 : en:

Свернуть

Скриншоты

Изображение

Изображение

Изображение

Изображение

Свернуть
Не в сети
Профиль  
 Добавлено: 2011-12-20 23:57 (спустя 2 часа 48 минут)
Аватара пользователя
Стаж: 8 лет 7 месяцев
Возраст: 24
Сообщений: 175
Спасибок: 1129
щас с другого трекера закачаю, помогу вам.
Не в сети
Профиль  
 Добавлено: 2011-12-21 01:05 (спустя 1 час 8 минут)
Аватара пользователя
Стаж: 8 лет 7 месяцев
Возраст: 24
Сообщений: 175
Спасибок: 1129
ребята я пришёл, забирайте всю скорость, что есть, особенно абоненты Дом.ру
Не в сети
Профиль  
 Добавлено: 2011-12-21 06:12 (спустя 5 часов)
Top-releaser
Аватара пользователя
Стаж: 8 лет 7 месяцев
Сообщений: 1286
Спасибок: 3420
Лайков: 7
gribov14 Спасибо за помощь, родина Вас не забудет :)
Не в сети
Профиль  
 Добавлено: 2011-12-23 10:09 (спустя 2 дня 3 часа)
Стаж: 7 лет 1 месяц
Сообщений: 9
Спасибок: 3
фильм так себе. средненький. На один раз посмотреть.
Не в сети
Профиль  
 Добавлено: 2011-12-24 18:18 (спустя 1 день 8 часов)
Аватара пользователя
Стаж: 7 лет 4 месяца
Возраст: 25
Сообщений: 14
Вчера посмотрел фильм на панели, фильм ни че так, даже 2 раза смотрел =)
Не в сети
Профиль  
Начать новую темуОтветить на тему  [ Сообщений: 6 ] 
Вы не можете начинать темы
Вы не можете отвечать на сообщения
Вы не можете редактировать свои сообщения
Вы не можете удалять свои сообщения