Правила форума

Здесь находятся раздачи, на которых не было полного источника (сида) более месяца.
Вы можете вернуть релиз в соответствующий раздел, для этого напишите нам в специальной теме и встаньте на раздачу.
Новые релизы, повторяющие релизы в архиве, повторами не считаются.
Начать новую темуОтветить на тему  [ 1 сообщение ] 
Сообщения
 Добавлено: 2011-12-11 16:35
Top-releaser
Стаж: 7 лет 4 месяца
Возраст: 33
Сообщений: 409
Спасибок: 6402
Лайков: 6
Защита от дурака / Foolproof

«This fall suspense gets intense!»

Изображение
Год выпуска: 2003
Страна: Канада
Жанр: боевик, триллер, комедия, криминал
Продолжительность: 01:33:49
Перевод: Профессиональный (дублирование)

Режиссер: Уильям Филлипс (William Phillips)
Сценарий: Уильям Филлипс / William Phillips
Продюсер: Билл Хаус / Bill House, Ситон МакЛин / Seaton McLean, Колин Брантон / Colin Brunton, Атом Эгоян / Atom Egoyan, Андреа Манн / Andrea Mann
Оператор: Дерек Роджерс / Derek Rogers
Композитор: Джим МакГрат / Jim McGrath

В ролях: Райан Рейнольдс (Kevin), Кристин Бут (Sam), Джорис Джарски (Rob), Шон Грегори Салливан (Stan), Тара Слоун (Maggie), Су Гарай (Hamish Receptionist), Уильям Хаус (Stanley Q. Hamish), Вэй Чой (Harry), Джеймс Оллоди (Detective Mason), Миф (Kenny), Дафф МакДональд (Harlon), Дэвид Суше (Leo Gillette)
Дублёры: Александр Рахленко (Kevin), Ольга Плетнёва (Sam), Андрей Бархударов (Rob), Дмитрий Филимонов (Stan), Вячеслав Баранов (Detective Mason), Олег Куценко (Kenny), Вадим Андреев (Leo Gillette), Борис Токарев (Lawrence Yeager), Андрей Ярославцев (Albert Humphrey), Юрий Маляров (Junior Detective)

Описание: Кевин, Саманта и Боб - члены частного клуба «Фулпрув» -занимаются разработкой технических способов защиты от грабежей и теоретическим осуществлением самых невыполнимых ограблений. В реальности же они не осуществили ни одного грабежа. Но все меняется, когда бандит Лео - криминальный авторитет, заполучает их план по краже бриллиантов и успешно осуществляет ограбление. Он шантажирует горе-умников, угрожая выдать их как соучастников, требуя разработать план еще одного ограбления, где на кон поставлены 10 млн $. Теперь ребятам нужен не только тщательно разработанный план ограбления, но как никогда раньше надежный способ остаться в живых...

Рейтинг
Kinopoisk.RU: 7.055 (1 180)
Imdb.com: 6.50 (4 732)
Mpaa: Изображение

Качество: HDTVRip 720p
Формат: MKV
Видео: AVC; 1280x688 (1.860); 5108 Kbps; 29,917 fps; 0,194 bpp
Аудио 1: Rus; AC3; 384 Kbps; CBR; 6 ch; 16 bit
Аудио 2: Eng; AC3; 384 Kbps; CBR; 6 ch; 16 bit
Субтитры: Russian, English

Mediainfo
General
Unique ID : 171229938298057719601289166991718825323 (0x80D1AFC20724847E94A9A218744F3D6B)
Complete name : D:\uTorrent\Foolproof.2003.HDTV.720p.mkv
Format : Matroska
Format version : Version 2
File size : 3.84 GiB
Duration : 1h 33mn
Overall bit rate : 5 860 Kbps
Encoded date : UTC 2011-12-11 10:53:38
Writing application : mkvmerge v5.0.1 ('Es ist Sommer') built on Oct 30 2011 21:53:49
Writing library : libebml v1.2.2 + libmatroska v1.3.0
Video #1
ID : 1
Format : AVC
Format/Info : Advanced Video Codec
Format profile : High@L4.0
Format settings, CABAC : Yes
Format settings, ReFrames : 6 frames
Muxing mode : Header stripping
Codec ID : V_MPEG4/ISO/AVC
Duration : 1h 33mn
Bit rate : 5 108 Kbps
Width : 1 280 pixels
Height : 688 pixels
Display aspect ratio : 1.860
Frame rate mode : Variable
Frame rate : 29.917 fps
Color space : YUV
Chroma subsampling : 4:2:0
Bit depth : 8 bits
Scan type : Progressive
Bits/(Pixel*Frame) : 0.194
Stream size : 3.26 GiB (85%)
Writing library : x264 core 112
Encoding settings : cabac=1 / ref=6 / deblock=1:-3:-3 / analyse=0x3:0x113 / me=hex / subme=10 / psy=1 / psy_rd=1.00:0.00 / mixed_ref=0 / me_range=16 / chroma_me=1 / trellis=2 / 8x8dct=1 / cqm=0 / deadzone=21,11 / fast_pskip=1 / chroma_qp_offset=-2 / threads=6 / sliced_threads=0 / nr=0 / decimate=1 / interlaced=0 / constrained_intra=0 / bframes=6 / b_pyramid=2 / b_adapt=1 / b_bias=0 / direct=1 / weightb=0 / open_gop=0 / weightp=2 / keyint=300 / keyint_min=29 / scenecut=40 / intra_refresh=0 / rc_lookahead=40 / rc=abr / mbtree=1 / bitrate=5108 / ratetol=1.0 / qcomp=0.60 / qpmin=3 / qpmax=51 / qpstep=4 / ip_ratio=1.40 / aq=1:1.00
Color primaries : BT.709-5, BT.1361, IEC 61966-2-4, SMPTE RP177
Transfer characteristics : BT.709-5, BT.1361
Matrix coefficients : BT.709-5, BT.1361, IEC 61966-2-4 709, SMPTE RP177
Audio #2
ID : 2
Format : AC-3
Format/Info : Audio Coding 3
Mode extension : CM (complete main)
Muxing mode : Header stripping
Codec ID : A_AC3
Duration : 1h 33mn
Bit rate mode : Constant
Bit rate : 384 Kbps
Channel(s) : 6 channels
Channel positions : Front: L C R, Side: L R, LFE
Sampling rate : 48.0 KHz
Bit depth : 16 bits
Compression mode : Lossy
Stream size : 258 MiB (7%)
Title : Дубляж
Language : Russian
Audio #3
ID : 3
Format : AC-3
Format/Info : Audio Coding 3
Mode extension : CM (complete main)
Muxing mode : Header stripping
Codec ID : A_AC3
Duration : 1h 33mn
Bit rate mode : Constant
Bit rate : 384 Kbps
Channel(s) : 6 channels
Channel positions : Front: L C R, Side: L R, LFE
Sampling rate : 48.0 KHz
Bit depth : 16 bits
Compression mode : Lossy
Stream size : 258 MiB (7%)
Language : English
Text #4
ID : 4
Format : UTF-8
Codec ID : S_TEXT/UTF8
Codec ID/Info : UTF-8 Plain Text
Language : Russian
Text #5
ID : 5
Format : UTF-8
Codec ID : S_TEXT/UTF8
Codec ID/Info : UTF-8 Plain Text
Language : English
Свернуть
Скриншоты
Изображение

Изображение

Изображение
Свернуть
Не в сети
Профиль  
Начать новую темуОтветить на тему  [ 1 сообщение ] 
Вы не можете начинать темы
Вы не можете отвечать на сообщения
Вы не можете редактировать свои сообщения
Вы не можете удалять свои сообщения