Правила форума

Здесь находятся раздачи, на которых не было полного источника (сида) более месяца.
Вы можете вернуть релиз в соответствующий раздел, для этого напишите нам в специальной теме и встаньте на раздачу.
Новые релизы, повторяющие релизы в архиве, повторами не считаются.
Начать новую темуОтветить на тему  [ Сообщений: 2 ] 
Сообщения
 Добавлено: 2011-07-28 17:07
Книголюб
Аватара пользователя
Стаж: 7 лет 2 месяца
Сообщений: 2823
Спасибок: 48825
Лайков: 73
Затерянная колония
Wraiths of Roanoke

Изображение


Год выпуска: 2007
Страна: США, Болгария
Слоган: «They came from England to tame the New World, only to become the prey of an ancient evil.»
Жанр: ужасы, фантастика, фэнтези, детектив
Продолжительность: 01:27:31
Перевод: Профессиональный (многоголосый закадровый)

Режиссёр: Мэтт Кодд
В ролях: Майкл Тех, Даг Дерт, Джордж Калил, Атанас Сребрев, Христо Митцков, Эдриан Пол, Мари Маскаро, Фрида Шоу, Ретт Джиллз, Алекс МакАртур
Описание: В 1492 году Христофор Колумб открыл Америку. И европейцы начали осваивать новые территории. Но не повсюду их ожидал радушный прием. И вовсе не обязательно беда исходила от индейцев-аборигенов. 22 июля 1587 года 117 отважных мужчин и женщин после долгого плавания через Атлантический океан высадились на острове Роаноке, штат Вирджиния, чтобы основать здесь первое британское поселение. Колонисты построили дома и засеяли землю. Но спустя некоторое время они все исчезли без следа. И мужчины, и женщины, и дети. И никто никогда не разгадал тайну исчезнувшей колонии…
Рейтинг MPAA: Рейтинг R (Подростки до 17 лет допускаются на фильм только в сопровождении одного из родителей)
Мировая премьера: 13 октября 2007
Бюджет: $2 000 000
Изображение 4.261 282

Качество: BDRip
Формат: MKV
Видео кодек: H264 (AVC)
Аудио кодек: AC3 (Dolby Digital)
Видео: 6574 Kb/s, 1280x720, 25.00fps, 0.285Bits/Pixe
Аудио #1: Russian: AC3, 384 kb/s (6 ch)
Audio#: English: AC3, 128 kb/s (2 ch)


MediaInfo
General
Unique ID : 243253421585395541601110957194013443714 (0xB700E7A599735E568300CF092B560682)
Complete name :J\Wraiths of Roanoke.mkv
Format : Matroska
File size : 4.41 GiB
Duration : 1h 27mn
Overall bit rate : 7 230 Kbps
Movie name : Затерянная колония / Lost Colony / Wraiths of Roanoke (2007) BDRip-AVC от FireBit - firebit.org
Encoded date : UTC 2011-07-26 15:22:07
Writing application : mkvmerge v2.3.0 ('Freak U') built on Sep 8 2008 18:32:16
Writing library : libebml v0.7.7 + libmatroska v0.8.1

Video
ID : 1
Format : AVC
Format/Info : Advanced Video Codec
Format profile : High@L4.1
Format settings, CABAC : Yes
Format settings, ReFrames : 5 frames
Codec ID : V_MPEG4/ISO/AVC
Duration : 1h 27mn
Bit rate : 6 574 Kbps
Width : 1 280 pixels
Height : 720 pixels
Display aspect ratio : 16:9
Frame rate : 25.000 fps
Color space : YUV
Chroma subsampling : 4:2:0
Bit depth : 8 bits
Scan type : Progressive
Bits/(Pixel*Frame) : 0.285
Stream size : 4.01 GiB (91%)
Title : http://firebit.org
Language : English

Audio #1
ID : 2
Format : AC-3
Format/Info : Audio Coding 3
Mode extension : CM (complete main)
Codec ID : A_AC3
Duration : 1h 27mn
Bit rate mode : Constant
Bit rate : 384 Kbps
Channel(s) : 6 channels
Channel positions : Front: L C R, Side: L R, LFE
Sampling rate : 48.0 KHz
Bit depth : 16 bits
Compression mode : Lossy
Delay relative to video : 16ms
Stream size : 240 MiB (5%)
Title : http://firebit.org
Language : Russian

Audio #2
ID : 3
Format : AC-3
Format/Info : Audio Coding 3
Mode extension : CM (complete main)
Codec ID : A_AC3
Duration : 1h 27mn
Bit rate mode : Constant
Bit rate : 128 Kbps
Channel(s) : 2 channels
Channel positions : Front: L R
Sampling rate : 48.0 KHz
Bit depth : 16 bits
Compression mode : Lossy
Delay relative to video : 16ms
Stream size : 80.0 MiB (2%)
Title : http://firebit.org
Language : English

Text #1
ID : 4
Format : UTF-8
Codec ID : S_TEXT/UTF8
Codec ID/Info : UTF-8 Plain Text
Title : http://firebit.org
Language : English

Text #2
ID : 5
Format : UTF-8
Codec ID : S_TEXT/UTF8
Codec ID/Info : UTF-8 Plain Text
Title : http://firebit.org
Language : English


Свернуть

Скриншоты
Изображение
Изображение
Изображение
Изображение
Свернуть
Не в сети
Профиль  
 Добавлено: 2011-07-28 18:34 (спустя 1 час 26 минут)
Стаж: 6 лет 3 месяца
Сообщений: 493
Лайков: 28
О! Бритый индеец! Как мило... Может он еще и феном укладку своего ирокеза делает?
Не в сети
Профиль  
Начать новую темуОтветить на тему  [ Сообщений: 2 ] 
Вы не можете начинать темы
Вы не можете отвечать на сообщения
Вы не можете редактировать свои сообщения
Вы не можете удалять свои сообщения