Правила форума

Здесь находятся раздачи, на которых не было полного источника (сида) более месяца.
Вы можете вернуть релиз в соответствующий раздел, для этого напишите нам в специальной теме и встаньте на раздачу.
Новые релизы, повторяющие релизы в архиве, повторами не считаются.
Начать новую темуОтветить на тему  [ Сообщений: 5 ] 
Сообщения
 Добавлено: 2011-10-03 07:03
Аватара пользователя
Стаж: 8 лет 10 месяцев
Возраст: 36
Сообщений: 440
Спасибок: 5166
Зеленый Фонарь / Green Lantern

Изображение


Год выпуска: 2011
Страна: США
Слоган: «Во тьме ночной, при свете дня...»

Жанр: фантастика, фэнтези, боевик, триллер, приключения
Перевод: Оригинальный, Авторский (одноголосый) Вячеслав Замез - zamez

Режиссер: Мартин Кэмпбелл / Martin Campbell
Сценарий: Грег Берланти / Greg Berlanti, Майкл Грин / Michael Green, Марк Гуггенхайм / Marc Guggenheim, Майкл Голденберг / Michael Goldenberg
Продюсер: Грег Берланти / Greg Berlanti, Дональд Де Лайн / Donald De Line, Херб Гейнс / Herb Gains, Эндрю Хаас / Andrew Haas, Джофф Джонс / Geoff Johns
Оператор: Дион Биби / Dion Beebe
Композитор: Джеймс Ньютон Ховард / James Newton Howard

В ролях: Райан Рейнольдс (Hal Jordan / Green Lantern), Блейк Лайвли (Carol Ferris), Питер Сарсгаард (Hector Hammond), Марк Стронг (Sinestro), Анджела Бассетт (Doctor Waller), Тим Роббинс (Hammond), Джей О. Сэндерс (Carl Ferris), Джон Тенни (Martin Jordan), Темуэра Моррисон (Abin Sur), Таика Вайтити (Tom Kalmaku), Майк Дойл (Jack Jordan), Николас Джендл (Jim Jordan)
Дублёры: Александр Носков (Hal Jordan / Green Lantern), Татьяна Шитова (Carol Ferris), Александр Гаврилин (Hector Hammond), Валерий Сторожик (Sinestro), Ольга Зубкова (Doctor Waller), Александр Рахленко (Hammond), Александр Новиков (Carl Ferris), Всеволод Кузнецов (Martin Jordan), Петр Тобилевич (Abin Sur), Никита Прозоровский (Tomar-Re), Георгий Мартиросьян (Kilowog), Михаил Сушков (Parallax)
Бюджет: $200 000 000
Сборы в США: $116 601 172
Сборы в России: $4 842 385
Сборы в мире: $219 901 172

Мировая премьера: 14 июня 2011
Релиз на DVD: 20 октября 2011, «CP-Digital»
Релиз на Blu-ray: 20 октября 2011, «CP-Digital»
Описание: Во Вселенной, столь же бесконечной, сколь и загадочной, многие века существовал отряд воинов, обладающих огромной силой. Защитники мира и справедливости, их называют Корпус Зеленых Фонарей. Братство воинов, поклявшихся защищать межгалактический закон, где каждый из них носит кольцо, дарующее ему сверхспособности. Но когда новый враг по имени Параллакс угрожает нарушить равновесие во Вселенной, их судьба и судьба Земли оказывается в руках новобранца, первого человека в истории отряда - Хэла Джордана.
Хэл - дерзкий и талантливый летчик-испытатель, но Зеленые Фонари не испытывают доверия и уважения к человечеству, ведь людям до этого ни разу не удалось обуздать безграничную силу кольца. Но Хэл - как недостающий кусочек мозаики, и вместе с решимостью и силой воли он обладает тем, чего не было ни у одного звездного воителя, - человечностью. Если при поддержке напарника и подруги детства Кэрол Феррис (Блейк Лайвли) Хэл сможет быстро научиться управлять мощью кольца и найдет мужество преодолеть свои страхи, он сможет не только доказать, что он является ключом к победе над Параллаксом… но и станет величайшим Зеленым Фонарем из всех.
Изображение
MPAA: Изображение - Детям до 13 лет просмотр не желателен
Качество: BD Remux
Формат: BDAV
Видео: MPEG-4 AVC Video 18057 kbps 1080p / 23.976 fps / 16:9 / High Profile 4.1
Аудио №1: DTS-HD Master Audio English 4068 kbps 5.1 / 48 kHz / 4068 kbps / 24-bit (DTS Core: 5.1 / 48 kHz / 1509 kbps / 24-bit)
Аудио №2: Russian ; AC3; 448 Kbps; CBR; 6 ch Одноголосый закадровый - Вячеслав Замез - zamez

За Видео и Аудио №1 благодарим HDChina
За Аудио №2 благодарим Вячеслав Замез - zamez
Изображение Для Би НН
Изображение Для остальных
"MediaInfo"
General
ID : 1 (0x1)
Complete name : D:\Green Lantern EXTENDED 2011 Blu-Ray 1080p AVC DTSMA-HDChina\BDMV\STREAM\00000.m2ts
Format : BDAV
Format/Info : Blu-ray Video
File size : 20.6 GiB
Duration : 2h 3mn
Overall bit rate mode : Variable
Overall bit rate : 23.9 Mbps
Maximum Overall bit rate : 35.5 Mbps

Video
ID : 4113 (0x1011)
Menu ID : 1 (0x1)
Format : AVC
Format/Info : Advanced Video Codec
Format profile : High@L4.1
Format settings, CABAC : Yes
Format settings, ReFrames : 2 frames
Format settings, GOP : M=1, N=10
Codec ID : 27
Duration : 2h 3mn
Bit rate mode : Variable
Bit rate : 20.9 Mbps
Width : 1 920 pixels
Height : 1 080 pixels
Display aspect ratio : 16:9
Frame rate : 23.976 fps
Color space : YUV
Chroma subsampling : 4:2:0
Bit depth : 8 bits
Scan type : Progressive
Bits/(Pixel*Frame) : 0.420
Stream size : 18.0 GiB (88%)

Audio #1
ID : 4352 (0x1100)
Menu ID : 1 (0x1)
Format : DTS
Format/Info : Digital Theater Systems
Format profile : MA / Core
Muxing mode : Stream extension
Codec ID : 134
Duration : 2h 3mn
Bit rate mode : Variable
Bit rate : 1 561 Kbps / 1 510 Kbps
Channel(s) : 6 channels
Channel positions : Front: L C R, Side: L R, LFE
Sampling rate : 48.0 KHz
Bit depth : 24 bits
Compression mode : Lossless / Lossy
Language : English

Audio #2
ID : 4353 (0x1101)
Menu ID : 1 (0x1)
Format : AC-3
Format/Info : Audio Coding 3
Mode extension : CM (complete main)
Codec ID : 129
Duration : 2h 3mn
Bit rate mode : Constant
Bit rate : 448 Kbps
Channel(s) : 6 channels
Channel positions : Front: L C R, Side: L R, LFE
Sampling rate : 48.0 KHz
Bit depth : 16 bits
Compression mode : Lossy
Stream size : 396 MiB (2%)
Language : Russian
Свернуть
"Знаете ли Вы, что..."
  • Зелёный Фонарь был создан автором Биллом Фингером и художником Мартином Ноделлом в All-American Comics #16 (июль 1940).
  • Главными претендентами на роль Зеленого Фонаря, помимо Райана Рейнольдса, были Брэдли Купер и Джастин Тимберлейк. Главная роль могла также достаться Сэму Уортингтону, Крису Пайну и Джареду Лето.
  • Синестро (Марк Стронг) могли сыграть Хьюго Уивинг, Джеки Эрл Хейли и Джеффри Раш.
Свернуть
"Скриншоты"
Изображение
Изображение
Изображение
Изображение
Изображение
Свернуть


Абоненты Билайн НН не забывайте прописывать ретрекер:

http://fttb.retracker.nnov.ru:666/announce

http://195.98.50.122/announce

Изображение
Не в сети
Профиль  
 Добавлено: 2011-10-06 11:39 (спустя 3 дня)
Аватара пользователя
Стаж: 7 лет 8 месяцев
Сообщений: 206
Кто посмотрел напишите как картинка и звук??? Стоит качать а то тишина!!!
Не в сети
Профиль  
 Добавлено: 2011-10-07 20:20 (спустя 1 день 8 часов)
Аватара пользователя
Стаж: 8 лет 10 месяцев
Возраст: 36
Сообщений: 440
Спасибок: 5166

aleksnik866:

Кто посмотрел напишите как картинка и звук??? Стоит качать а то тишина!!!
У вас подозрений не возникает, что если никто не пишет, то нормально всё ?! :ni_zia:
Вообще если не качали, то не качайте - на подходе :
Зеленый Фонарь / Green Lantern (2011) Blu-ray 3D Disc [3D/2D]
а мое "временное" творение пойдет в утиль :(
"Смерть ради жизни" (С) :-D
Не в сети
Профиль  
 Добавлено: 2011-10-08 04:38 (спустя 8 часов)
Аватара пользователя
Стаж: 9 лет
Сообщений: 514
Спасибок: 343
Лайков: 1
дайте рип вот этого пожалуста))
_________________
Изображение
Не в сети
Профиль  
 Добавлено: 2011-10-11 19:06 (спустя 3 дня)
Аватара пользователя
Стаж: 6 лет 8 месяцев
Сообщений: 82
а почему английский язык?как по русски сделать
Не в сети
Профиль  
Начать новую темуОтветить на тему  [ Сообщений: 5 ] 
Вы не можете начинать темы
Вы не можете отвечать на сообщения
Вы не можете редактировать свои сообщения
Вы не можете удалять свои сообщения