Правила форума

Здесь находятся раздачи, на которых не было полного источника (сида) более месяца.
Вы можете вернуть релиз в соответствующий раздел, для этого напишите нам в специальной теме и встаньте на раздачу.
Новые релизы, повторяющие релизы в архиве, повторами не считаются.
Начать новую темуОтветить на тему  [ 1 сообщение ] 
Сообщения
 Добавлено: 2012-02-23 12:31
Аватара пользователя
Стаж: 5 лет 5 месяцев
Возраст: 30
Сообщений: 353
Спасибок: 7455
Земля людей / Земля людей

Изображение


Год выпуска: 2010
Страна: Россия (Послесловие)
Жанр: драма
Продолжительность: 01:44:24
Перевод: Не требуется
Субтитры: Нет

Режиссёр: Сергей Говорухин
Сценарист: Сергей Говорухин, Сергей Карандашов, Вадим Бочанов
Продюсер: Сергей Говорухин
Оператор: Григорий Яблочников
Композитор: Олег Федосеев
В ролях: Александр Скотников, Анна Тараторкина, Сергей Шнырев, Татьяна Колганова, Николай Денисов, Евгений Ермаков, Константин Балакирев, Станислав Стрелков, Татьяна Клюкина, Василий Шемякинский

Описание: Талантливый, но невостребованный писатель Алексей Комаров возвращается в Москву из Воркуты, где работал старателем на северных приисках. Возвращается в новый, жестокий и уничтожающий мир столичной Москвы, где власть и деньги правят умами, и давно не в цене нравственность и настоящая, талантливая литература.
Встретив по пути женщину, такую же одинокую и несостоявшуюся в этой жизни, приезжает с ней в Москву в надежде обрести простое человеческое счастье, желанную работу. Но встречи со старыми друзьями, новая жизнь которых также не сложилась, бесполезное блуждание от театральных вахт до литературных редакций в надежде на понимание и поддержку заканчиваются все новыми и новыми разочарованиями.

Доп.информация: нет
Премьера в России: 20 октября 2011, «СаундМФ»
Бюджет: $1 200 000

Изображение

Качество: DVD9 R5
Формат: DVD Video
Видео кодек: MPEG2
Аудио кодек: AC3 (Dolby Digital)
Видео: PAL 16:9 (720x576(0.530)) MPEG Video, 25,000 кадр/сек, 5497 Кбит/сек
Аудио #1: Russian (Dolby AC3, 2 ch) 448 Кбит/сек, 48,0 КГц [Не требуется]
Субтитры: Нет
"DVDInfo"
Title:
Size: 4.50 Gb ( 4 722 188 KBytes ) - DVD-9
Enabled regions: 1, 2, 3, 4, 5, 6, 7, 8

VTS_01 :
Play Length: 00:00:15
Video: PAL 4:3 (720x576) VBR
Audio:
Not specified (Dolby AC3, 2 ch)

VTS_02 :
Play Length: 00:00:08
Video: PAL 16:9 (720x576) VBR, Auto Pan&Scan
Audio:
Not specified (Dolby AC3, 2 ch)

VTS_03 :
Play Length: 01:44:24
Video: PAL 16:9 (720x576) VBR, Auto Pan&Scan
Audio:
Russian (Dolby AC3, 2 ch)

Menu Video:
PAL 16:9 (720x576) VBR
Auto Letterboxed
Menu English Language Unit :
Root Menu
Chapter (PTT) Menu
Свернуть

"MediaInfo"
Общее
Полное имя : G:\Новинки 2012\Zemlja.ljudej.2011.DVD9\VIDEO_TS\VTS_03_1.VOB
Формат : MPEG-PS
Размер файла : 1024 Мбайт
Продолжительность : 23 м.
Режим общего битрейта : Переменный
Общий поток : 6066 Кбит/сек

Видео
Идентификатор : 224 (0xE0)
Формат : MPEG Video
Версия формата : Version 2
Профиль формата : Main@Main
Параметр BVOP формата : Да
Параметр матрицы формата : По умолчанию
Параметр GOP формата : M=3, N=12
Продолжительность : 23 м.
Вид битрейта : Переменный
Битрейт : 5497 Кбит/сек
Максимальный битрейт : 7500 Кбит/сек
Ширина : 720 пикселей
Высота : 576 пикселей
Соотношение сторон : 16:9
Частота кадров : 25,000 кадров/сек
Стандарт вещания : PAL
Цветовое пространство : YUV
Субдискретизация насыщенности : 4:2:0
Битовая глубина : 8 бит
Тип развёртки : Чересстрочная
Порядок развёртки : Нижнее поле первое
Метод сжатия : С потерями
Бит/(Пиксели*Кадры) : 0.530
Размер потока : 928 Мбайт (91%)

Аудио
Идентификатор : 189 (0xBD)-128 (0x80)
Формат : AC-3
Формат/Информация : Audio Coding 3
Расширение режима : CM (complete main)
Режим смешивания : DVD-Video
Продолжительность : 23 м.
Вид битрейта : Постоянный
Битрейт : 448 Кбит/сек
Каналы : 2 канала
Расположение каналов : Front: L R
Частота : 48,0 КГц
Битовая глубина : 16 бит
Метод сжатия : С потерями
Размер потока : 75,6 Мбайт (7%)
Свернуть


Скриншоты
Скриншоты меню
Изображение
Изображение
Свернуть
Изображение
Изображение
Изображение
Изображение
Изображение
Изображение
Изображение
Изображение
Свернуть

Знаете ли Вы, что...
Фильм снят по мотивам повести «Мутный материк» С.С.Говорухина.
Свернуть


ИзображениеИзображение
Не в сети
Профиль  
Начать новую темуОтветить на тему  [ 1 сообщение ] 
Вы не можете начинать темы
Вы не можете отвечать на сообщения
Вы не можете редактировать свои сообщения
Вы не можете удалять свои сообщения