Правила форума

Здесь находятся раздачи, на которых не было полного источника (сида) более месяца.
Вы можете вернуть релиз в соответствующий раздел, для этого напишите нам в специальной теме и встаньте на раздачу.
Новые релизы, повторяющие релизы в архиве, повторами не считаются.
Начать новую темуОтветить на тему  [ Сообщений: 2 ] 
Сообщения
 Добавлено: 2011-10-14 22:32
Руководитель релиз-группы
Аватара пользователя
Стаж: 8 лет 6 месяцев
Возраст: 25
Сообщений: 7578
Спасибок: 51914
Лайков: 14
Земля вампиров
Stake Land

Изображение

Год выпуска: 2010
Страна: США
Слоган: ««Самое опасное - быть живым»»
Жанр: ужасы
Продолжительность: 01:38:30
Перевод: Дубляж
Режиссер: Джим Микл
В ролях: Даниэль Харрис, Коннор Паоло, Келли МакГиллис, Бонни Деннисон, Майкл Серверис, Ник Дамичи, Шон Нельсон, Чэнс Келли, Адам Скаримболо, Марианн Хэйгэн
Описание:
Когда города и села большой страны начали разрушаться и ветшать, на них обрушилась новая напасть — эпидемия вампиризма. Там, где есть вампиры, есть и охотники на них. Некто «Мистер», самый крутой крушитель кровососов, поможет юноше перебраться на север, в так называемый Новый Эдем.
Релиз: Изображение
Качество: BDRip 1080p R5 / HQRip
Формат: MKV
Видео: x264, 10000 kb/s, 1920x804, 23.976 fps, High Profile 4.1
Аудио 1: 48 kHz, Dolby AC3 (6 ch) 384 kbps Русский
Аудио 2: 48 kHz, Dolby AC3 (6 ch) 1510 kb/s kbps Английский

Скриншоты
Изображение
Изображение
Изображение
Свернуть
"MediaInfo"
Title: Zemlja.vampirov.2011.DVD9
Title:
General
Complete name : H:\Stake.Land.2010.D.BDRip.1080p.ELEKTRI4KA.mkv
Format : Matroska
File size : 8.18 GiB
Duration : 1h 38mn
Overall bit rate : 11.9 Mbps
Movie name : ELEKTRI4KA
Encoded date : UTC 2011-10-14 15:22:44
Writing application : mkvmerge v3.4.0 ('Rapunzel') сборка от May 15 2010 09:38:20
Writing library : libebml v0.8.0 + libmatroska v0.9.0

Video
ID : 1
Format : AVC
Format/Info : Advanced Video Codec
Format profile : High@L4.1
Format settings, CABAC : Yes
Format settings, ReFrames : 5 frames
Codec ID : V_MPEG4/ISO/AVC
Duration : 1h 38mn
Bit rate : 10 000 Kbps
Width : 1 920 pixels
Height : 804 pixels
Display aspect ratio : 2.35:1
Frame rate : 23.976 fps
Color space : YUV
Chroma subsampling : 4:2:0
Bit depth : 8 bits
Scan type : Progressive
Bits/(Pixel*Frame) : 0.270
Stream size : 6.72 GiB (82%)
Title : Stake.Land.2010.BluRay.1080p.DTS.x264-CHD
Writing library : x264 core 114 r1924 08d04a4
Encoding settings : cabac=1 / ref=5 / deblock=1:-3:-3 / analyse=0x3:0x113 / me=umh / subme=10 / psy=1 / psy_rd=1.00:0.00 / mixed_ref=1 / me_range=32 / chroma_me=1 / trellis=2 / 8x8dct=1 / cqm=2 / deadzone=21,11 / fast_pskip=0 / chroma_qp_offset=-1 / threads=8 / sliced_threads=0 / nr=0 / decimate=1 / interlaced=0 / constrained_intra=0 / bframes=6 / b_pyramid=2 / b_adapt=2 / b_bias=0 / direct=3 / weightb=1 / open_gop=0 / weightp=2 / keyint=250 / keyint_min=23 / scenecut=40 / intra_refresh=0 / rc_lookahead=50 / rc=2pass / mbtree=1 / bitrate=10000 / ratetol=1.0 / qcomp=0.70 / qpmin=1 / qpmax=63 / qpstep=4 / cplxblur=20.0 / qblur=0.5 / vbv_maxrate=40000 / vbv_bufsize=40000 / nal_hrd=none / ip_ratio=1.40 / aq=2:1.00
Language : English

Audio #1
ID : 2
Format : AC-3
Format/Info : Audio Coding 3
Mode extension : CM (complete main)
Codec ID : A_AC3
Duration : 1h 38mn
Bit rate mode : Constant
Bit rate : 384 Kbps
Channel(s) : 6 channels
Channel positions : Front: L C R, Side: L R, LFE
Sampling rate : 48.0 KHz
Bit depth : 16 bits
Stream size : 271 MiB (3%)
Title : DUB R5
Language : Russian

Audio #2
ID : 3
Format : DTS
Format/Info : Digital Theater Systems
Codec ID : A_DTS
Duration : 1h 38mn
Bit rate mode : Constant
Bit rate : 1 510 Kbps
Channel(s) : 6 channels
Channel positions : Front: L C R, Side: L R, LFE
Sampling rate : 48.0 KHz
Bit depth : 24 bits
Stream size : 1.04 GiB (13%)
Title : Original
Language : English

Text
ID : 4
Format : UTF-8
Codec ID : S_TEXT/UTF8
Codec ID/Info : UTF-8 Plain Text
Title : English
Language : English

Menu
00:00:00.000 : :1. Call Me Martin
00:06:29.847 : :2. Welcome to Stake Land
00:11:38.698 : :3. Lockdown
00:16:24.525 : :4. Sister
00:19:15.654 : :5. Fishing
00:24:32.012 : :6. The Brotherhood
00:29:48.578 : :7. The Valley of Them
00:33:44.981 : :8. Making A Break For It
00:37:15.274 : :9. Belle
00:42:36.470 : :10. Scamp
00:48:17.644 : :11. Willie
00:51:32.089 : :12. Payback
00:54:51.913 : :13. Strivington
01:02:34.709 : :14. Becoming A Pack
01:06:53.092 : :15. Berzerkers
01:10:47.076 : :16. Taking Refuge
01:15:03.665 : :17. Missing
01:18:00.092 : :18. The Lowlands
01:21:14.536 : :19. A Vengeful God
01:25:47.559 : :20. Almost There
01:33:23.598 : :21. End Credits
Свернуть
Не в сети
Профиль  
 Добавлено: 2011-10-15 15:20 (спустя 16 часов)
Top-seeder
Аватара пользователя
Стаж: 7 лет 6 месяцев
Возраст: 21
Сообщений: 74
Спасибок: 90
нормальный такой фильм...
Не в сети
Профиль  
Начать новую темуОтветить на тему  [ Сообщений: 2 ] 
Вы не можете начинать темы
Вы не можете отвечать на сообщения
Вы не можете редактировать свои сообщения
Вы не можете удалять свои сообщения