Правила форума

Здесь находятся раздачи, на которых не было полного источника (сида) более месяца.
Вы можете вернуть релиз в соответствующий раздел, для этого напишите нам в специальной теме и встаньте на раздачу.
Новые релизы, повторяющие релизы в архиве, повторами не считаются.
Начать новую темуОтветить на тему  [ Сообщений: 2 ] 
Сообщения
 Добавлено: 2013-03-25 10:03
Модератор
Аватара пользователя
Стаж: 6 лет 10 месяцев
Возраст: 33
Сообщений: 5908
Спасибок: 61250
Лайков: 3540
Изображение

Зубастики 2: Основное блюдо
Critters 2


Год выпуска: 1988
Страна: США
Слоган: «Они вернулись за добавкой!»
Жанр: ужасы, фантастика, триллер, комедия
Продолжительность: 01:22:17
Перевод: Профессиональный |двухголосый закадровый | Студия Инис по заказу Союз-Видео + Профессиональный |двухголосый закадровый | ТВ6 + Авторский |одноголосый закадровый| А.Гаврилов
Режиссер: Мик Гэррис
Сценарий: Дэвид Туи, Мик Гэррис
Продюсер: Бэрри Оппер, Дэрил Касс, Роберт Шэй
Оператор: Рассел Карпентер
Композитор: Николас Пайк
В ролях: Терренс Манн, Дон Кит Оппер, Синтия Гэррис, Скотт Граймз, Аль Стивенсон, Том Ходжис, Дуглас Роу, Лиан Александра Кёртис, Линдси Паркер, Херта Уэр, Сэм Андерсон, Лин Шэй
Бюджет: $4 500 000
Сборы в США: $3 813 293
Мировая премьера: 29 апреля 1988
Релиз на DVD: 2 февраля 2012, «CP-Digital»
Описание: Прошло 2 года с тех пор, как гадкие зубастые существа впервые терроризировали городок Гроверз Бенд и разгромили ферму Браунов. Пришло время, и из огромных зеленых яиц стали вылупляться Зубастики, как раз ко дню Святой Пасхи. Сорвав церковную службу, они вновь начинают пожирать все на своем пути. К счастью, в город приезжает храбрый юноша Брэд Браун, который объединяется со своими старыми друзьями космическими охотниками и вступает в бой с Зубастиками.

Изображение User Rating: 6.267 (2460)
Изображение User Rating: 4.90 (6 455)
MPAA: PG-13 - Детям до 13 лет просмотр не желателен
Раздача группы: Изображение
Качество: WEB-DLRip, 720p
Формат: MKV
Видео: AVC; 1280x718 (16:9); 4349 Kbps; 25 fps; 0,189 bit/pixel
Аудио №1: русский; AC3; 448 Kbps; CBR; 6 ch | Союз-Видео
Аудио №2: русский; AC3; 448 Kbps; CBR; 6 ch | ТВ 6
Аудио №3: русский; AC3; 448 Kbps; CBR; 6 ch | Гаврилов
Аудио №4: AC3; 448 Kbps; CBR; 6 ch | Оригинал
Субтитры №1: русские,
Субтитры №2:

mediainfo
General
Complete name : O:\Critters.2.1988.720p.WEB-DL.3xRus.Eng.mkv
Format : Matroska
File size : 3.60 GiB
Duration : 1h 22mn
Overall bit rate : 6 266 Kbps
Movie name : Critters 2
Encoded date : UTC 2013-02-16 17:07:59
Writing application : mkvmerge v5.3.0 ('I could have danced') built on Feb 9 2012 10:38:07
Writing library : libebml v1.2.3 + libmatroska v1.3.0

Video
ID : 1
Format : AVC
Format/Info : Advanced Video Codec
Format profile : High@L3.1
Format settings, CABAC : No
Format settings, ReFrames : 2 frames
Muxing mode : Container profile=Unknown@3.1
Codec ID : V_MPEG4/ISO/AVC
Duration : 1h 22mn
Bit rate : 4 350 Kbps
Width : 1 280 pixels
Height : 718 pixels
Display aspect ratio : 16:9
Frame rate : 25.000 fps
Resolution : 8 bits
Colorimetry : 4:2:0
Scan type : Progressive
Bits/(Pixel*Frame) : 0.189
Stream size : 2.50 GiB (69%)
Color primaries : BT.709-5, BT.1361, IEC 61966-2-4, SMPTE RP177
Transfer characteristics : BT.709-5, BT.1361
Matrix coefficients : BT.709-5, BT.1361, IEC 61966-2-4 709, SMPTE RP177

Audio #1
ID : 2
Format : AC-3
Format/Info : Audio Coding 3
Codec ID : A_AC3
Duration : 1h 22mn
Bit rate mode : Constant
Bit rate : 448 Kbps
Channel(s) : 6 channels
Channel positions : Front: L C R, Surround: L R, LFE
Sampling rate : 48.0 KHz
Stream size : 264 MiB (7%)
Title : Inis AC3 5.1 448 kbps
Language : Russian

Audio #2
ID : 3
Format : AC-3
Format/Info : Audio Coding 3
Codec ID : A_AC3
Duration : 1h 22mn
Bit rate mode : Constant
Bit rate : 448 Kbps
Channel(s) : 6 channels
Channel positions : Front: L C R, Surround: L R, LFE
Sampling rate : 48.0 KHz
Stream size : 264 MiB (7%)
Title : TV6 AC3 5.1 448 kbps
Language : Russian

Audio #3
ID : 4
Format : AC-3
Format/Info : Audio Coding 3
Codec ID : A_AC3
Duration : 1h 22mn
Bit rate mode : Constant
Bit rate : 448 Kbps
Channel(s) : 6 channels
Channel positions : Front: L C R, Surround: L R, LFE
Sampling rate : 48.0 KHz
Stream size : 264 MiB (7%)
Title : Gavrilov AC3 5.1 448 kbps
Language : Russian

Audio #4
ID : 5
Format : AC-3
Format/Info : Audio Coding 3
Codec ID : A_AC3
Duration : 1h 22mn
Bit rate mode : Constant
Bit rate : 448 Kbps
Channel(s) : 6 channels
Channel positions : Front: L C R, Surround: L R, LFE
Sampling rate : 48.0 KHz
Stream size : 264 MiB (7%)
Title : Original AC3 5.1 448 kbps

Text #1
ID : 6
Format : UTF-8
Codec ID : S_TEXT/UTF8
Codec ID/Info : UTF-8 Plain Text
Language : Russian

Text #2
ID : 7
Format : UTF-8
Codec ID : S_TEXT/UTF8
Codec ID/Info : UTF-8 Plain Text

Menu
00:00:00.000 : en:1
00:04:41.000 : en:2
00:07:18.000 : en:3
00:09:57.000 : en:4
00:11:20.000 : en:5
00:14:45.000 : en:6
00:16:13.000 : en:7
00:18:31.000 : en:8
00:20:25.000 : en:9
00:23:59.000 : en:10
00:27:50.000 : en:11
00:33:19.000 : en:12
00:36:16.000 : en:13
00:38:33.000 : en:14
00:48:51.000 : en:15
00:56:36.000 : en:16
00:58:53.000 : en:17
01:05:19.000 : en:18
01:11:48.000 : en:19
01:22:27.000 : en:20
Свернуть
Скриншоты

Изображение
Изображение
Изображение
Свернуть
_________________
ИзображениеИзображение Изображение
Изображение


Последний раз редактировалось rotametr 2013-03-25 19:38, всего редактировалось 1 раз.
 tany1984 и di-ys1 нравится это.
Не в сети
Профиль  
 Добавлено: 2013-03-25 18:48 (спустя 8 часов)
Модератор
Аватара пользователя
Стаж: 8 лет 11 месяцев
Сообщений: 516
Спасибок: 26888
Лайков: 1
Для HD и HQRip-ов необходимы скриншоты в формате PNG, для остальных форматов PNG так же рекомендуется.
Не в сети
Профиль  
Начать новую темуОтветить на тему  [ Сообщений: 2 ] 
Вы не можете начинать темы
Вы не можете отвечать на сообщения
Вы не можете редактировать свои сообщения
Вы не можете удалять свои сообщения