Начать новую темуОтветить на тему  [ Сообщений: 12 ] 
Торрент файл
Размер: 5.46 GB • Зарегистрирован: 5 лет 11 месяцев • Статус: Проверено
Скачан: 106 раз • Желающих скачать: 0 • Поблагодарили: 31 раз
 Раздают: 0  |  0 KB/s  ]   Качают: 0  |  0 KB/s  ] 
 Полного источника не было 1 год 9 месяцев 
Сообщения
 Добавлено: 2010-03-02 19:28
Top-seeder
Аватара пользователя
Стаж: 8 лет 8 месяцев
Сообщений: 170
Спасибок: 1396
Лайков: 1
Sade-Discography


Изображение


Страна: Japan, EU, USA
Жанр: jazz, female, vocalists, chillout, pop ...
Год выпуска: 1984-2011
Формат: FLAC (image + .cue)
Битрейт аудио: lossless

Доп. информация:

Sade — всемирно известная английская группа, музыка которой сочетает в себе черты джаза, фанка, соула и ритм-энд-блюза.
Имя
Шаде Аду, которую многие европейские музыкальные критики назвали ‘’звездой сезона 1984-5 годов’‘, еще годом раньше было совершенно неизвестно за пределами Англии, где певица живет в последнее время. Родилась она в Нигерии, в небольшом селе, расположенном в полусотне километров от столицы - Лагоса. Отец ее - темнокожий из племени йоруба, по профессии экономист, мать - англичанка. С расовыми проблемами девочка столкнулась еще в раннем детстве в Великобритании, куда она переехала с матерью после развода родителей. ‘’В Англии, где я ходила в школу, меня называли негритянкой, а на родине, когда я приезжала на каникулы, наоборот, считали белой’‘. Окончив школу. Шаде поступила в колледж, готовивший дизайнеров одежды. ‘’Я и не мечтала стать певицей, - признается она. - Мне хотелось стать создателем мужской одежды’‘. Но найти после окончания учебы работу по профессии не удалось. Вместе с подругой Шаде открыла небольшое ателье мод, но торговля шла из рук вон плохо и девушки еле сводили концы с концами. Неожиданная удача пришла с другой стороны....


"Albums"

"Sade - Diamond Life"

Изображение


Год записи альбома: 1984
Год выпуска диска: 2005
Производитель диска: Japan
Аудио кодек: FLAC
Тип рипа: image+.cue
Битрейт аудио: lossless
Время звучания: 44:42

Трэклист:
01. Smooth Operator
02. Your Love Is King
03. Hang On To Your Love
04. Frankie's First Affair
05. When Am I Going To Make A Living
06. Cherry Pie
07. Sally
08. I Will Be Your Friend
09. Why Can't We Live Together
"Лог EAC"

Exact Audio Copy V0.99 prebeta 5 from 4. May 2009

EAC extraction logfile from 19. September 2009, 20:26

Sade / Diamond Life (MHCP 603)

Used drive : PLEXTOR CD-R PX-230A Adapter: 1 ID: 0

Read mode : Secure
Utilize accurate stream : Yes
Defeat audio cache : Yes
Make use of C2 pointers : No

Read offset correction : 738
Overread into Lead-In and Lead-Out : No
Fill up missing offset samples with silence : Yes
Delete leading and trailing silent blocks : No
Null samples used in CRC calculations : Yes
Used interface : Installed external ASPI interface

Used output format : Internal WAV Routines
Sample format : 44.100 Hz; 16 Bit; Stereo

TOC of the extracted CD

Track | Start | Length | Start sector | End sector
---------------------------------------------------------
1 | 0:00.00 | 5:01.00 | 0 | 22574
2 | 5:01.00 | 3:41.27 | 22575 | 39176
3 | 8:42.27 | 5:55.10 | 39177 | 65811
4 | 14:37.37 | 4:40.00 | 65812 | 86811
5 | 19:17.37 | 3:27.43 | 86812 | 102379
6 | 22:45.05 | 6:20.50 | 102380 | 130929
7 | 29:05.55 | 5:23.70 | 130930 | 155224
8 | 34:29.50 | 4:44.67 | 155225 | 176591
9 | 39:14.42 | 5:28.25 | 176592 | 201216

Range status and errors

Selected range

Filename D:\! EAC_Rips\Sade -1984- Diamond Life (MHCP 603)\Sade - Diamond Life (MHCP 603).wav

Peak level 99.8 %
Range quality 100.0 %
Test CRC B5556344
Copy CRC B5556344
Copy OK

No errors occurred

AccurateRip summary

Track 1 accurately ripped (confidence 3) [C4B02374]
Track 2 accurately ripped (confidence 2) [6D705318]
Track 3 accurately ripped (confidence 2) [50BF9E59]
Track 4 accurately ripped (confidence 2) [C0487DA5]
Track 5 accurately ripped (confidence 2) [6B9B7FB4]
Track 6 accurately ripped (confidence 2) [1DC172EF]
Track 7 accurately ripped (confidence 2) [51040EB9]
Track 8 accurately ripped (confidence 2) [98138426]
Track 9 accurately ripped (confidence 2) [7D4B20C7]

All tracks accurately ripped

End of status report
Свернуть
Свернуть
"Sade - Promise"

Изображение


Год записи альбома: 1985
Год выпуска диска: 2005
Производитель диска: Japan
Аудио кодек: FLAC
Тип рипа: image+.cue
Битрейт аудио: lossless
Время звучания: 54:27

Трэклист:
01. Is It a Crime
02. The Sweetest Taboo
03. War Of The Hearts
04. You're Not The Man
05. Jezebel
06. Mr Wrong
07. Punch Drunk
08. Never As Good As The First Time
09. Fear
10. Tar Baby
11. Maureen
"Лог EAC"

Exact Audio Copy V0.99 prebeta 5 from 4. May 2009

EAC extraction logfile from 19. September 2009, 20:45

Sade / Promise (MHCP 604)

Used drive : PLEXTOR CD-R PX-230A Adapter: 1 ID: 0

Read mode : Secure
Utilize accurate stream : Yes
Defeat audio cache : Yes
Make use of C2 pointers : No

Read offset correction : 738
Overread into Lead-In and Lead-Out : No
Fill up missing offset samples with silence : Yes
Delete leading and trailing silent blocks : No
Null samples used in CRC calculations : Yes
Used interface : Installed external ASPI interface

Used output format : Internal WAV Routines
Sample format : 44.100 Hz; 16 Bit; Stereo

TOC of the extracted CD

Track | Start | Length | Start sector | End sector
---------------------------------------------------------
1 | 0:00.00 | 6:22.65 | 0 | 28714
2 | 6:22.65 | 4:38.42 | 28715 | 49606
3 | 11:01.32 | 6:49.05 | 49607 | 80286
4 | 17:50.37 | 5:11.55 | 80287 | 103666
5 | 23:02.17 | 5:31.35 | 103667 | 128526
6 | 28:33.52 | 2:53.10 | 128527 | 141511
7 | 31:26.62 | 5:27.13 | 141512 | 166049
8 | 36:54.00 | 5:01.40 | 166050 | 188664
9 | 41:55.40 | 4:11.65 | 188665 | 207554
10 | 46:07.30 | 4:00.27 | 207555 | 225581
11 | 50:07.57 | 4:20.05 | 225582 | 245086

Range status and errors

Selected range

Filename D:\! EAC_Rips\Sade -1985- Promise (MHCP 604)\Sade - Promise (MHCP 604).wav

Peak level 99.8 %
Range quality 100.0 %
Test CRC 4E198A47
Copy CRC 4E198A47
Copy OK

No errors occurred

AccurateRip summary

Track 1 accurately ripped (confidence 2) [085B02D1]
Track 2 accurately ripped (confidence 2) [EC488AB4]
Track 3 accurately ripped (confidence 2) [CA2ACD72]
Track 4 accurately ripped (confidence 2) [205EEF5B]
Track 5 accurately ripped (confidence 2) [384BA10E]
Track 6 accurately ripped (confidence 2) [4C1701B3]
Track 7 accurately ripped (confidence 2) [B8066A66]
Track 8 accurately ripped (confidence 2) [EB8D775E]
Track 9 accurately ripped (confidence 2) [14957772]
Track 10 accurately ripped (confidence 2) [31B3A420]
Track 11 accurately ripped (confidence 2) [7833ECCB]

All tracks accurately ripped

End of status report
Свернуть
Свернуть
"Sade - Stronger Than Pride"

Изображение


Год записи альбома: 1988
Год выпуска диска: 2005
Производитель диска: Japan
Аудио кодек: FLAC
Тип рипа: image+.cue
Битрейт аудио: lossless
Время звучания: 47:46

Трэклист:
01. Love Is Stronger Than Pride
02. Paradise
03. Nothing Can Come Between Us
04. Haunt Me
05. Turn My Back On You
06. Keep Looking
07. Clean Heart
08. Give It Up
09. I Never Thought I'd See The Day
10. Sempre Hay Esperanza
"Лог EAC"

Exact Audio Copy V0.99 prebeta 5 from 4. May 2009

EAC extraction logfile from 19. September 2009, 21:07

Sade / Stronger Than Pride (MHCP 605)

Used drive : PLEXTOR CD-R PX-230A Adapter: 1 ID: 0

Read mode : Secure
Utilize accurate stream : Yes
Defeat audio cache : Yes
Make use of C2 pointers : No

Read offset correction : 738
Overread into Lead-In and Lead-Out : No
Fill up missing offset samples with silence : Yes
Delete leading and trailing silent blocks : No
Null samples used in CRC calculations : Yes
Used interface : Installed external ASPI interface

Used output format : Internal WAV Routines
Sample format : 44.100 Hz; 16 Bit; Stereo

TOC of the extracted CD

Track | Start | Length | Start sector | End sector
---------------------------------------------------------
1 | 0:00.00 | 4:20.20 | 0 | 19519
2 | 4:20.20 | 4:05.05 | 19520 | 37899
3 | 8:25.25 | 4:25.55 | 37900 | 57829
4 | 12:51.05 | 5:53.27 | 57830 | 84331
5 | 18:44.32 | 6:09.18 | 84332 | 112024
6 | 24:53.50 | 5:24.20 | 112025 | 136344
7 | 30:17.70 | 4:04.20 | 136345 | 154664
8 | 34:22.15 | 3:52.55 | 154665 | 172119
9 | 38:14.70 | 4:16.05 | 172120 | 191324
10 | 42:31.00 | 5:15.62 | 191325 | 215011

Range status and errors

Selected range

Filename D:\! EAC_Rips\Sade -1988- Stronger Than Pride (MHCP 605)\Sade - Stronger Than Pride (MHCP 605).wav

Peak level 99.8 %
Range quality 100.0 %
Test CRC 691883C1
Copy CRC 691883C1
Copy OK

No errors occurred

AccurateRip summary

Track 1 accurately ripped (confidence 3) [5D5990BA]
Track 2 accurately ripped (confidence 3) [E9587CFF]
Track 3 accurately ripped (confidence 3) [BFA7444C]
Track 4 accurately ripped (confidence 3) [33B02FCF]
Track 5 accurately ripped (confidence 3) [11EA0BDF]
Track 6 accurately ripped (confidence 3) [1750A610]
Track 7 accurately ripped (confidence 3) [527A8E41]
Track 8 accurately ripped (confidence 3) [AFF99C91]
Track 9 accurately ripped (confidence 3) [D872C4C2]
Track 10 accurately ripped (confidence 3) [35504032]

All tracks accurately ripped

End of status report
Свернуть
Свернуть
"Sade - Love Deluxe"

Изображение

Год записи альбома: 1992
Год выпуска диска: 2005
Производитель диска: Japan
Аудио кодек: FLAC
Тип рипа: image+.cue
Битрейт аудио: lossless
Время звучания: 45:59

Трэклист:
01. No Ordinary Love
02. Feel No Pain
03. I Couldn't Love You More
04. Like A Tattoo
05. Kiss Of Life
06. Cherish The Day
07. Pearls
08. Bullet Proof Soul
09. Mermaid
"Лог EAC"

Exact Audio Copy V0.99 prebeta 5 from 4. May 2009

EAC extraction logfile from 19. September 2009, 21:22

Sade / Love Deluxe (MHCP 606)

Used drive : PLEXTOR CD-R PX-230A Adapter: 1 ID: 0

Read mode : Secure
Utilize accurate stream : Yes
Defeat audio cache : Yes
Make use of C2 pointers : No

Read offset correction : 738
Overread into Lead-In and Lead-Out : No
Fill up missing offset samples with silence : Yes
Delete leading and trailing silent blocks : No
Null samples used in CRC calculations : Yes
Used interface : Installed external ASPI interface

Used output format : Internal WAV Routines
Sample format : 44.100 Hz; 16 Bit; Stereo

TOC of the extracted CD

Track | Start | Length | Start sector | End sector
---------------------------------------------------------
1 | 0:00.00 | 7:22.35 | 0 | 33184
2 | 7:22.35 | 5:11.15 | 33185 | 56524
3 | 12:33.50 | 3:50.60 | 56525 | 73834
4 | 16:24.35 | 3:40.65 | 73835 | 90399
5 | 20:05.25 | 5:52.45 | 90400 | 116844
6 | 25:57.70 | 5:34.12 | 116845 | 141906
7 | 31:32.07 | 4:35.58 | 141907 | 162589
8 | 36:07.65 | 5:27.44 | 162590 | 187158
9 | 41:35.34 | 4:24.23 | 187159 | 206981

Range status and errors

Selected range

Filename D:\! EAC_Rips\Sade -1992- Love Deluxe (MHCP 606)\Sade - Love Deluxe (MHCP 606).wav

Peak level 100.0 %
Range quality 100.0 %
Test CRC 9BD6A8B0
Copy CRC 9BD6A8B0
Copy OK

No errors occurred

AccurateRip summary

Track 1 accurately ripped (confidence 2) [114C016D]
Track 2 accurately ripped (confidence 2) [58E1F484]
Track 3 accurately ripped (confidence 2) [C1A4477B]
Track 4 accurately ripped (confidence 2) [DB559214]
Track 5 accurately ripped (confidence 2) [13CD52C7]
Track 6 accurately ripped (confidence 2) [6AB1D3FC]
Track 7 accurately ripped (confidence 2) [9E368697]
Track 8 accurately ripped (confidence 2) [86E72296]
Track 9 accurately ripped (confidence 2) [7B93D46A]

All tracks accurately ripped

End of status report
Свернуть
Свернуть
"The Best Of Sade - Special Edition"

Изображение

Год записи альбома: 1994
Год выпуска диска: 2005
Производитель диска: Japan
Аудио кодек: FLAC
Тип рипа: image+.cue
Битрейт аудио: lossless
Время звучания: 1:14:57

Трэклист:
01. Your Love Is King
02. Hang On To Your Love
03. Smooth Operator
04. Jezebel
05. The Sweetest Taboo
06. Is It A Crime
07. Never As Good As The First Time
08. Love Is Stronger Than Pride
09. Paradise
10. Nothing Can Come Between Us
11. No Ordinary Love
12. Like A Tattoo
13. Kiss Of Life
14. Please Send Me Someone To Love
15. Cherish The Day
16. Pearls
"Лог EAC"

Exact Audio Copy V0.99 prebeta 5

from 4. May 2009

EAC extraction logfile from 19. September 2009, 21:58

Sade / The Best Of Sade. Special Edition (EICP 1128-9)

Used drive : PLEXTOR CD-R PX-230A Adapter: 1 ID: 0

Read mode : Secure
Utilize accurate stream : Yes
Defeat audio cache : Yes
Make use of C2 pointers : No

Read offset correction : 738
Overread into Lead-In and Lead-Out : No
Fill up missing offset samples with silence : Yes
Delete leading and trailing silent blocks : No
Null samples used in CRC calculations : Yes
Used interface : Installed external ASPI interface

Used output format : Internal WAV Routines
Sample format : 44.100 Hz; 16 Bit; Stereo

TOC of the extracted CD

Track | Start | Length | Start sector | End sector
---------------------------------------------------------
1 | 0:00.00 | 3:41.25 | 0 | 16599
2 | 3:41.25 | 4:32.62 | 16600 | 37061
3 | 8:14.12 | 4:21.23 | 37062 | 56659
4 | 12:35.35 | 5:30.62 | 56660 | 81471
5 | 18:06.22 | 4:38.28 | 81472 | 102349
6 | 22:44.50 | 6:23.37 | 102350 | 131111
7 | 29:08.12 | 3:59.40 | 131112 | 149076
8 | 33:07.52 | 4:20.18 | 149077 | 168594
9 | 37:27.70 | 3:39.17 | 168595 | 185036
10 | 41:07.12 | 3:56.43 | 185037 | 202779
11 | 45:03.55 | 7:22.17 | 202780 | 235946
12 | 52:25.72 | 3:41.10 | 235947 | 252531
13 | 56:07.07 | 4:12.65 | 252532 | 271496
14 | 60:19.72 | 3:43.13 | 271497 | 288234
15 | 64:03.10 | 6:19.62 | 288235 | 316721
16 | 70:22.72 | 4:34.15 | 316722 | 337286

Range status and errors

Selected range

Filename D:\! EAC_Rips\Sade -1994- The Best Of Sade - Special Edition (EICP 1128-9)\Sade - The Best Of Sade. Special Edition (EICP

1128-9).wav

Peak level 100.0 %
Range quality 99.9 %
Test CRC 7E540D4F
Copy CRC 7E540D4F
Copy OK

No errors occurred

AccurateRip summary

Track 1 not present in database
Track 2 not present in database
Track 3 not present in database
Track 4 not present in database
Track 5 not present in database
Track 6 not present in database
Track 7 not present in database
Track 8 not present in database
Track 9 not present in database
Track 10 not present in database
Track 11 not present in database
Track 12 not present in database
Track 13 not present in database
Track 14 not present in database
Track 15 not present in database
Track 16 not present in database

None of the tracks are present in the AccurateRip database

End of status report
Свернуть
Свернуть
"Sade - Lovers Rock"

Изображение

Год записи альбома: 2003
Год выпуска диска: 2005
Производитель диска: Japan
Аудио кодек: FLAC
Тип рипа: image+.cue
Битрейт аудио: lossless
Время звучания: 44:22

Трэклист:
01. By Your Side
02. Flow
03. King Of Sorrow
04. Somebody Already Broke My Heart
05. All About Our Love
06. Slave Song
07. The Sweetest Gift
08. Every Word
09. Immigrant
10. Lovers Rock
11. It's Only Love That Gets You Through
"Лог EAC"

Exact Audio Copy V0.99 prebeta 5 from 4. May 2009

EAC extraction logfile from 19. September 2009, 22:11

Sade / Lovers Rock (MHCP 608)

Used drive : PLEXTOR CD-R PX-230A Adapter: 1 ID: 0

Read mode : Secure
Utilize accurate stream : Yes
Defeat audio cache : Yes
Make use of C2 pointers : No

Read offset correction : 738
Overread into Lead-In and Lead-Out : No
Fill up missing offset samples with silence : Yes
Delete leading and trailing silent blocks : No
Null samples used in CRC calculations : Yes
Used interface : Installed external ASPI interface

Used output format : Internal WAV Routines
Sample format : 44.100 Hz; 16 Bit; Stereo

TOC of the extracted CD

Track | Start | Length | Start sector | End sector
---------------------------------------------------------
1 | 0:00.00 | 4:34.57 | 0 | 20606
2 | 4:34.57 | 4:34.38 | 20607 | 41194
3 | 9:09.20 | 4:52.72 | 41195 | 63166
4 | 14:02.17 | 5:01.10 | 63167 | 85751
5 | 19:03.27 | 2:40.48 | 85752 | 97799
6 | 21:44.00 | 4:14.35 | 97800 | 116884
7 | 25:58.35 | 2:18.60 | 116885 | 127294
8 | 28:17.20 | 4:04.40 | 127295 | 145634
9 | 32:21.60 | 3:49.32 | 145635 | 162841
10 | 36:11.17 | 4:14.45 | 162842 | 181936
11 | 40:25.62 | 3:56.60 | 181937 | 199696

Range status and errors

Selected range

Filename D:\! EAC_Rips\Sade -2000- Lovers Rock (MHCP 608)\Sade - Lovers Rock (MHCP 608).wav

Peak level 99.8 %
Range quality 100.0 %
Test CRC D8AE0AF2
Copy CRC D8AE0AF2
Copy OK

No errors occurred

AccurateRip summary

Track 1 cannot be verified as accurate (confidence 3) [D9638236], AccurateRip returned [38C4A59A]
Track 2 cannot be verified as accurate (confidence 3) [E87ADBB7], AccurateRip returned [19D8D0CE]
Track 3 cannot be verified as accurate (confidence 3) [3FA54D26], AccurateRip returned [B56D00E4]
Track 4 cannot be verified as accurate (confidence 3) [EA81A96A], AccurateRip returned [64A94136]
Track 5 cannot be verified as accurate (confidence 3) [B0EDEAF6], AccurateRip returned [C98A349F]
Track 6 cannot be verified as accurate (confidence 3) [5837A2CC], AccurateRip returned [22654F60]
Track 7 cannot be verified as accurate (confidence 3) [6A8D8ED6], AccurateRip returned [C7C4B400]
Track 8 cannot be verified as accurate (confidence 3) [B0DF2FF0], AccurateRip returned [6F466A43]
Track 9 cannot be verified as accurate (confidence 3) [7CC422D3], AccurateRip returned [C1C08086]
Track 10 cannot be verified as accurate (confidence 3) [AEBA5A09], AccurateRip returned [EB89287F]
Track 11 cannot be verified as accurate (confidence 3) [3EC9F670], AccurateRip returned [86DE31B5]

No tracks could be verified as accurate
You may have a different pressing from the one(s) in the database

End of status report
Свернуть
Свернуть
"Sade - Lovers Live"

Изображение

Год записи альбома: 2002
Год выпуска диска: 2005
Производитель диска: Japan
Аудио кодек: FLAC
Тип рипа: image+.cue
Битрейт аудио: lossless
Время звучания: 27:16

Трэклист:
01. Cherish The Day
02. Somebody Already Broke My Heart
03. Smooth Operator
04. Jezebel
04. Kiss Of Life
04. Slave Song
04. The Sweetest Gift
04. The Sweetest Taboo
04. Paradise
10. No Ordinary Love
11. By Your Side
12. Flow
13. Is It A Crime
"Лог EAC"

Exact Audio Copy V0.99 prebeta 5 from 4. May 2009

EAC extraction logfile from 19. September 2009, 22:28

Sade / Lovers Live (EICP 66)

Used drive : PLEXTOR CD-R PX-230A Adapter: 1 ID: 0

Read mode : Secure
Utilize accurate stream : Yes
Defeat audio cache : Yes
Make use of C2 pointers : No

Read offset correction : 738
Overread into Lead-In and Lead-Out : No
Fill up missing offset samples with silence : Yes
Delete leading and trailing silent blocks : No
Null samples used in CRC calculations : Yes
Used interface : Installed external ASPI interface

Used output format : Internal WAV Routines
Sample format : 44.100 Hz; 16 Bit; Stereo

TOC of the extracted CD

Track | Start | Length | Start sector | End sector
---------------------------------------------------------
1 | 0:00.00 | 6:37.63 | 0 | 29837
2 | 6:37.63 | 5:13.40 | 29838 | 53352
3 | 11:51.28 | 4:16.60 | 53353 | 72612
4 | 16:08.13 | 6:44.50 | 72613 | 102962
5 | 22:52.63 | 4:58.32 | 102963 | 125344
6 | 27:51.20 | 4:35.18 | 125345 | 145987
7 | 32:26.38 | 2:32.25 | 145988 | 157412
8 | 34:58.63 | 6:01.00 | 157413 | 184487
9 | 40:59.63 | 4:32.00 | 184488 | 204887
10 | 45:31.63 | 6:09.50 | 204888 | 232612
11 | 51:41.38 | 4:54.25 | 232613 | 254687
12 | 56:35.63 | 5:01.60 | 254688 | 277322
13 | 61:37.48 | 8:23.30 | 277323 | 315077

Range status and errors

Selected range

Filename D:\! EAC_Rips\Sade -2002- Lovers Live (EICP 66)\Sade - Lovers Live (EICP 66).wav

Peak level 100.0 %
Range quality 100.0 %
Test CRC 0865AFE7
Copy CRC 0865AFE7
Copy OK

No errors occurred

AccurateRip summary

Track 1 cannot be verified as accurate (confidence 2) [3CCB275C], AccurateRip returned [2F4CFA41]
Track 2 cannot be verified as accurate (confidence 2) [72CE499F], AccurateRip returned [A3E08003]
Track 3 cannot be verified as accurate (confidence 2) [BB6E02B7], AccurateRip returned [52A7C2CB]
Track 4 cannot be verified as accurate (confidence 2) [9479A105], AccurateRip returned [D89009DB]
Track 5 cannot be verified as accurate (confidence 2) [D281A015], AccurateRip returned [46119A09]
Track 6 cannot be verified as accurate (confidence 2) [BE663D70], AccurateRip returned [0302A124]
Track 7 not present in database
Track 8 cannot be verified as accurate (confidence 2) [D6365468], AccurateRip returned [C9B322DF]
Track 9 cannot be verified as accurate (confidence 2) [02A33164], AccurateRip returned [D9DD9A61]
Track 10 cannot be verified as accurate (confidence 2) [DF71219C], AccurateRip returned [F51DF747]
Track 11 cannot be verified as accurate (confidence 2) [DA35A781], AccurateRip returned [074EDEF4]
Track 12 not present in database
Track 13 cannot be verified as accurate (confidence 2) [89D87B16], AccurateRip returned [CE98E879]

11 track(s) could not be verified as accurate
2 track(s) not present in the AccurateRip database

No tracks could be verified as accurate
You may have a different pressing from the one(s) in the database

End of status report
Свернуть
Свернуть
"Sade - Soldier Of Love"

Изображение

Год выпуска диска: 2010
Производитель диска: USA
Аудио кодек: FLAC
Тип рипа: tracks+.cue
Битрейт аудио: lossless
Время звучания: 41:59

Трэклист:
01. The Moon And The Sky
02. Soldier Of Love
03. Morning Bird
04. Babyfather
05. Long Hard Road
06. Be That Easy
07. Bring Me Home
08. In Another Time
09. Skin
10. The Safest Place
"Лог EAC"

Exact Audio Copy V0.99 prebeta 3 from 28. July 2007

EAC extraction logfile from 9. February 2010, 15:24

Sade / Soldier Of Love

Used drive : TSSTcorpCDDVDW SH-S203B Adapter: 3 ID: 2

Read mode : Secure
Utilize accurate stream : Yes
Defeat audio cache : Yes
Make use of C2 pointers : No

Read offset correction : 6
Overread into Lead-In and Lead-Out : No
Fill up missing offset samples with silence : Yes
Delete leading and trailing silent blocks : No
Null samples used in CRC calculations : Yes
Used interface : Installed external ASPI interface

Used output format : User Defined Encoder
Selected bitrate : 1024 kBit/s
Quality : High
Add ID3 tag : Yes
Command line compressor : C:\Program Files\FLAC\flac.exe
Additional command line options : -8 -V -T "ARTIST=%a" -T "TITLE=%t" -T "ALBUM=%g" -T "DATE=%y" -T "TRACKNUMBER=%n" -T "GENRE=%m" -T "COMMENT=%e" %s -o %d

TOC of the extracted CD

Track | Start | Length | Start sector | End sector
---------------------------------------------------------
1 | 0:00.00 | 4:27.42 | 0 | 20066
2 | 4:27.42 | 5:58.38 | 20067 | 46954
3 | 10:26.05 | 3:55.24 | 46955 | 64603
4 | 14:21.29 | 4:40.11 | 64604 | 85614
5 | 19:01.40 | 3:02.54 | 85615 | 99318
6 | 22:04.19 | 3:40.58 | 99319 | 115876
7 | 25:45.02 | 4:08.57 | 115877 | 134533
8 | 29:53.59 | 5:05.70 | 134534 | 157478
9 | 34:59.54 | 4:13.17 | 157479 | 176470
10 | 39:12.71 | 2:46.02 | 176471 | 188922

Range status and errors

Selected range

Filename T:\CD\Sade - Soldier Of Love\Sade - Soldier Of Love.wav

Peak level 99.9 %
Range quality 100.0 %
Copy CRC C8DF7AB5
Copy OK

No errors occurred

AccurateRip summary

Track 1 not present in database
Track 2 not present in database
Track 3 not present in database
Track 4 not present in database
Track 5 not present in database
Track 6 not present in database
Track 7 not present in database
Track 8 not present in database
Track 9 not present in database
Track 10 not present in database

None of the tracks are present in the AccurateRip database

End of status report
Свернуть
Свернуть
"Sade - The Ultimate Collection"

Изображение

Год выпуска диска: 2011
Производитель диска: Europe
Аудио кодек: FLAC
Тип рипа: tracks+.cue
Битрейт аудио: lossless
Время звучания: 02:13:04

Треклист:
Disc-1:

01. Your Love Is King [3:42]
02. Smooth Operator [4:18]
03. Hang On To Your Love [4:32]
04. The Sweetest Taboo [4:27]
05. Is It A Crime [6:22]
06. Never As Good As The First Time [3:58]
07. Jezebel [5:27]
08. Love Is Stronger Than Pride [4:20]
09. Paradise [3:38]
10. Nothing Can Come Between Us [3:54]
11. No Ordinary Love [7:21]
12. Kiss Of Life [4:14]
13. Feel No Pain [5:11]
14. Bullet Proof Soul [5:25]

Disc-2:
01. Cherish The Day [6:20]
02. Pearls [4:34]
03. By Your Side [4:41]
04. Immigrant [3:50]
05. Flow [4:34]
06. King Of Sorrow [4:47]
07. The Sweetest Gift [2:21]
08. Soldier Of Love [5:58]
09. The Moon And The Sky [4:29]
10. Babyfather [4:40]
11. Still In Love With You [4:26]
12. Love Is Found [4:11]
13. I Would Never Have Guessed [2:57]
14. The Moon And The Sky (Remix Feat. Jay-Z) [4:27]
15. By Your Side (Neptunes Remix) [3:59]

"Лог EAC"

СD1
Exact Audio Copy V0.99 prebeta 5 from 4. May 2009

EAC extraction logfile from 3. May 2011, 19:41

Sade / The Ultimate Collection CD1

Used drive : Optiarc DVD RW AD-7260S Adapter: 3 ID: 0

Read mode : Secure
Utilize accurate stream : Yes
Defeat audio cache : Yes
Make use of C2 pointers : No

Read offset correction : 48
Overread into Lead-In and Lead-Out : No
Fill up missing offset samples with silence : Yes
Delete leading and trailing silent blocks : No
Null samples used in CRC calculations : Yes
Used interface : Installed external ASPI interface
Gap handling : Appended to previous track

Used output format : User Defined Encoder
Selected bitrate : 192 kBit/s
Quality : High
Add ID3 tag : No
Command line compressor : D:\Program Files\Exact Audio Copy\flac-1.1.4-win\bin\flac.exe
Additional command line options : -8 -V -T "ARTIST=%a" -T "TITLE=%t" -T "ALBUM=%g" -T "DATE=%y" -T "TRACKNUMBER=%n" -T "TOTALTRACKS=%x" -T "GENRE=%m" -T "ALBUMARTIST=%v" -T "ALBUM ARTIST=%v" -T "COMMENT=EAC Secure Mode, Test & Copy, AccurateRip, FLAC -8" %s

TOC of the extracted CD

Track | Start | Length | Start sector | End sector
---------------------------------------------------------
1 | 0:00.00 | 3:42.18 | 0 | 16667
2 | 3:42.18 | 4:18.05 | 16668 | 36022
3 | 8:00.23 | 4:31.68 | 36023 | 56415
4 | 12:32.16 | 4:27.25 | 56416 | 76465
5 | 16:59.41 | 6:21.61 | 76466 | 105101
6 | 23:21.27 | 3:58.15 | 105102 | 122966
7 | 27:19.42 | 5:26.42 | 122967 | 147458
8 | 32:46.09 | 4:19.42 | 147459 | 166925
9 | 37:05.51 | 3:37.54 | 166926 | 183254
10 | 40:43.30 | 3:53.72 | 183255 | 200801
11 | 44:37.27 | 7:20.45 | 200802 | 233846
12 | 51:57.72 | 4:13.67 | 233847 | 252888
13 | 56:11.64 | 5:11.17 | 252889 | 276230
14 | 61:23.06 | 5:25.36 | 276231 | 300641

Track 1

Filename E:\EAC\Sade - The Ultimate Collection (2011) [FLAC]\CD1\01 - Your love is king.wav

Pre-gap length 0:00:02.00

Peak level 90.2 %
Track quality 100.0 %
Test CRC 39571CFF
Copy CRC 39571CFF
Track not present in AccurateRip database
Copy OK

Track 2

Filename E:\EAC\Sade - The Ultimate Collection (2011) [FLAC]\CD1\02 - Smooth operator.wav

Pre-gap length 0:00:00.94

Peak level 79.2 %
Track quality 100.0 %
Test CRC 139356EE
Copy CRC 139356EE
Track not present in AccurateRip database
Copy OK

Track 3

Filename E:\EAC\Sade - The Ultimate Collection (2011) [FLAC]\CD1\03 - Hang on to your love.wav

Pre-gap length 0:00:01.92

Peak level 99.8 %
Track quality 100.0 %
Test CRC 217FDE5F
Copy CRC 217FDE5F
Track not present in AccurateRip database
Copy OK

Track 4

Filename E:\EAC\Sade - The Ultimate Collection (2011) [FLAC]\CD1\04 - The sweetest taboo.wav

Pre-gap length 0:00:02.66

Peak level 81.2 %
Track quality 100.0 %
Test CRC DBC7788F
Copy CRC DBC7788F
Track not present in AccurateRip database
Copy OK

Track 5

Filename E:\EAC\Sade - The Ultimate Collection (2011) [FLAC]\CD1\05 - Is it a crime.wav

Pre-gap length 0:00:02.14

Peak level 90.1 %
Track quality 100.0 %
Test CRC 8237E8BE
Copy CRC 8237E8BE
Track not present in AccurateRip database
Copy OK

Track 6

Filename E:\EAC\Sade - The Ultimate Collection (2011) [FLAC]\CD1\06 - Never as good as the first time.wav

Pre-gap length 0:00:00.88

Peak level 98.8 %
Track quality 100.0 %
Test CRC 5CD4524E
Copy CRC 5CD4524E
Track not present in AccurateRip database
Copy OK

Track 7

Filename E:\EAC\Sade - The Ultimate Collection (2011) [FLAC]\CD1\07 - Jezebel.wav

Pre-gap length 0:00:01.93

Peak level 95.1 %
Track quality 100.0 %
Test CRC A52FA03D
Copy CRC A52FA03D
Track not present in AccurateRip database
Copy OK

Track 8

Filename E:\EAC\Sade - The Ultimate Collection (2011) [FLAC]\CD1\08 - Love is stronger than pride.wav

Pre-gap length 0:00:00.38

Peak level 92.3 %
Track quality 100.0 %
Test CRC BD49FA9A
Copy CRC BD49FA9A
Track not present in AccurateRip database
Copy OK

Track 9

Filename E:\EAC\Sade - The Ultimate Collection (2011) [FLAC]\CD1\09 - Paradise.wav

Pre-gap length 0:00:01.92

Peak level 92.3 %
Track quality 100.0 %
Test CRC 3C4780FF
Copy CRC 3C4780FF
Track not present in AccurateRip database
Copy OK

Track 10

Filename E:\EAC\Sade - The Ultimate Collection (2011) [FLAC]\CD1\10 - Nothing can come between us.wav

Pre-gap length 0:00:01.65

Peak level 99.9 %
Track quality 100.0 %
Test CRC D4BB5A2C
Copy CRC D4BB5A2C
Track not present in AccurateRip database
Copy OK

Track 11

Filename E:\EAC\Sade - The Ultimate Collection (2011) [FLAC]\CD1\11 - No ordinary love.wav

Pre-gap length 0:00:01.29

Peak level 92.3 %
Track quality 100.0 %
Test CRC 39BD0E3E
Copy CRC 39BD0E3E
Track not present in AccurateRip database
Copy OK

Track 12

Filename E:\EAC\Sade - The Ultimate Collection (2011) [FLAC]\CD1\12 - Kiss of life.wav

Pre-gap length 0:00:01.89

Peak level 88.9 %
Track quality 100.0 %
Test CRC D85BB069
Copy CRC D85BB069
Track not present in AccurateRip database
Copy OK

Track 13

Filename E:\EAC\Sade - The Ultimate Collection (2011) [FLAC]\CD1\13 - Feel no pain.wav

Pre-gap length 0:00:03.24

Peak level 98.9 %
Track quality 100.0 %
Test CRC 8DFB1CDD
Copy CRC 8DFB1CDD
Track not present in AccurateRip database
Copy OK

Track 14

Filename E:\EAC\Sade - The Ultimate Collection (2011) [FLAC]\CD1\14 - Bullet proof soul.wav

Pre-gap length 0:00:02.44

Peak level 90.0 %
Track quality 100.0 %
Test CRC 9D21C4EA
Copy CRC 9D21C4EA
Track not present in AccurateRip database
Copy OK

None of the tracks are present in the AccurateRip database

No errors occurred

End of status report
Свернуть
CD2
Exact Audio Copy V0.99 prebeta 5 from 4. May 2009

EAC extraction logfile from 3. May 2011, 20:22

Sade / The Ultimate Collection CD2

Used drive : Optiarc DVD RW AD-7260S Adapter: 3 ID: 0

Read mode : Secure
Utilize accurate stream : Yes
Defeat audio cache : Yes
Make use of C2 pointers : No

Read offset correction : 48
Overread into Lead-In and Lead-Out : No
Fill up missing offset samples with silence : Yes
Delete leading and trailing silent blocks : No
Null samples used in CRC calculations : Yes
Used interface : Installed external ASPI interface
Gap handling : Appended to previous track

Used output format : User Defined Encoder
Selected bitrate : 192 kBit/s
Quality : High
Add ID3 tag : No
Command line compressor : D:\Program Files\Exact Audio Copy\flac-1.1.4-win\bin\flac.exe
Additional command line options : -8 -V -T "ARTIST=%a" -T "TITLE=%t" -T "ALBUM=%g" -T "DATE=%y" -T "TRACKNUMBER=%n" -T "TOTALTRACKS=%x" -T "GENRE=%m" -T "ALBUMARTIST=%v" -T "ALBUM ARTIST=%v" -T "COMMENT=EAC Secure Mode, Test & Copy, AccurateRip, FLAC -8" %s

TOC of the extracted CD

Track | Start | Length | Start sector | End sector
---------------------------------------------------------
1 | 0:00.00 | 6:19.74 | 0 | 28498
2 | 6:19.74 | 4:34.05 | 28499 | 49053
3 | 10:54.04 | 4:40.59 | 49054 | 70112
4 | 15:34.63 | 3:49.71 | 70113 | 87358
5 | 19:24.59 | 4:34.05 | 87359 | 107913
6 | 23:58.64 | 4:47.24 | 107914 | 129462
7 | 28:46.13 | 2:20.72 | 129463 | 140034
8 | 31:07.10 | 5:58.29 | 140035 | 166913
9 | 37:05.39 | 4:29.27 | 166914 | 187115
10 | 41:34.66 | 4:40.26 | 187116 | 208141
11 | 46:15.17 | 4:26.35 | 208142 | 228126
12 | 50:41.52 | 4:10.41 | 228127 | 246917
13 | 54:52.18 | 2:57.15 | 246918 | 260207
14 | 57:49.33 | 4:27.24 | 260208 | 280256
15 | 62:16.57 | 3:59.07 | 280257 | 298188

Track 1

Filename E:\EAC\Sade - The Ultimate Collection (2011) [FLAC]\CD2\01 - Cherish the day.wav

Pre-gap length 0:00:02.00

Peak level 98.9 %
Track quality 100.0 %
Test CRC 757CB161
Copy CRC 757CB161
Track not present in AccurateRip database
Copy OK

Track 2

Filename E:\EAC\Sade - The Ultimate Collection (2011) [FLAC]\CD2\02 - Pearls.wav

Pre-gap length 0:00:01.36

Peak level 82.6 %
Track quality 100.0 %
Test CRC 3EE33137
Copy CRC 3EE33137
Track not present in AccurateRip database
Copy OK

Track 3

Filename E:\EAC\Sade - The Ultimate Collection (2011) [FLAC]\CD2\03 - By your side.wav

Pre-gap length 0:00:01.52

Peak level 98.7 %
Track quality 99.9 %
Test CRC 5876C7C8
Copy CRC 5876C7C8
Track not present in AccurateRip database
Copy OK

Track 4

Filename E:\EAC\Sade - The Ultimate Collection (2011) [FLAC]\CD2\04 - Immigrant.wav

Pre-gap length 0:00:01.04

Peak level 92.8 %
Track quality 100.0 %
Test CRC C6502DBD
Copy CRC C6502DBD
Track not present in AccurateRip database
Copy OK

Track 5

Filename E:\EAC\Sade - The Ultimate Collection (2011) [FLAC]\CD2\05 - Flow.wav

Pre-gap length 0:00:02.08

Peak level 98.9 %
Track quality 100.0 %
Test CRC 4CA5D7BC
Copy CRC 4CA5D7BC
Track not present in AccurateRip database
Copy OK

Track 6

Filename E:\EAC\Sade - The Ultimate Collection (2011) [FLAC]\CD2\06 - King of sorrow.wav

Pre-gap length 0:00:00.57

Peak level 92.5 %
Track quality 100.0 %
Test CRC 39729134
Copy CRC 39729134
Track not present in AccurateRip database
Copy OK

Track 7

Filename E:\EAC\Sade - The Ultimate Collection (2011) [FLAC]\CD2\07 - The sweetest gift.wav

Pre-gap length 0:00:01.73

Peak level 86.7 %
Track quality 100.0 %
Test CRC 7BE61552
Copy CRC 7BE61552
Track not present in AccurateRip database
Copy OK

Track 8

Filename E:\EAC\Sade - The Ultimate Collection (2011) [FLAC]\CD2\08 - Soldier of love.wav

Pre-gap length 0:00:01.52

Peak level 98.9 %
Track quality 100.0 %
Test CRC CD494BC0
Copy CRC CD494BC0
Track not present in AccurateRip database
Copy OK

Track 9

Filename E:\EAC\Sade - The Ultimate Collection (2011) [FLAC]\CD2\09 - The moon and the sky.wav

Pre-gap length 0:00:01.50

Peak level 97.0 %
Track quality 99.9 %
Test CRC 6B5EC0B5
Copy CRC 6B5EC0B5
Track not present in AccurateRip database
Copy OK

Track 10

Filename E:\EAC\Sade - The Ultimate Collection (2011) [FLAC]\CD2\10 - Babyfather.wav

Pre-gap length 0:00:02.10

Peak level 97.3 %
Track quality 100.0 %
Test CRC 370E8CC9
Copy CRC 370E8CC9
Track not present in AccurateRip database
Copy OK

Track 11

Filename E:\EAC\Sade - The Ultimate Collection (2011) [FLAC]\CD2\11 - Still in love with you.wav

Pre-gap length 0:00:01.69

Peak level 98.9 %
Track quality 100.0 %
Test CRC 0DC31AC6
Copy CRC 0DC31AC6
Track not present in AccurateRip database
Copy OK

Track 12

Filename E:\EAC\Sade - The Ultimate Collection (2011) [FLAC]\CD2\12 - Love is found.wav

Pre-gap length 0:00:02.22

Peak level 97.7 %
Track quality 100.0 %
Test CRC E3C35D1E
Copy CRC E3C35D1E
Track not present in AccurateRip database
Copy OK

Track 13

Filename E:\EAC\Sade - The Ultimate Collection (2011) [FLAC]\CD2\13 - I would never have guessed.wav

Pre-gap length 0:00:02.17

Peak level 97.7 %
Track quality 100.0 %
Test CRC 308F4E37
Copy CRC 308F4E37
Track not present in AccurateRip database
Copy OK

Track 14

Filename E:\EAC\Sade - The Ultimate Collection (2011) [FLAC]\CD2\14 - The moon and the sky (Remix feat. Jay-Z).wav

Pre-gap length 0:00:01.78

Peak level 97.7 %
Track quality 99.9 %
Test CRC D1AA6EFD
Copy CRC D1AA6EFD
Track not present in AccurateRip database
Copy OK

Track 15

Filename E:\EAC\Sade - The Ultimate Collection (2011) [FLAC]\CD2\15 - By your side (Neptunes Remix).wav

Pre-gap length 0:00:01.00

Peak level 81.2 %
Track quality 99.9 %
Test CRC 1CA54651
Copy CRC 1CA54651
Track not present in AccurateRip database
Copy OK

None of the tracks are present in the AccurateRip database

No errors occurred

End of status report
Свернуть
Свернуть
Свернуть
Свернуть
"Singles "

"Sade - The Remix Deluxe"

Изображение

Год записи альбома: 1992
Год выпуска диска: 1992
Производитель диска: Japan
Аудио кодек: FLAC
Тип рипа: image+.cue
Битрейт аудио: lossless
Время звучания: 27:16

Трэклист:
01. Feel No Pain (Nellee Hooper Remix)
02. Love Is Stronger Than Pride (Mad Professor Remix)
03. Make Some Room
04. Paradise (Ronin Remix)
05. Super Bien Total
"Лог EAC"

Exact Audio Copy V0.99 prebeta 5 from 4. May 2009

EAC extraction logfile from 19. September 2009, 21:33

Sade / The Remix Deluxe (ESCA 5700. Japan only EP)

Used drive : PLEXTOR CD-R PX-230A Adapter: 1 ID: 0

Read mode : Secure
Utilize accurate stream : Yes
Defeat audio cache : Yes
Make use of C2 pointers : No

Read offset correction : 738
Overread into Lead-In and Lead-Out : No
Fill up missing offset samples with silence : Yes
Delete leading and trailing silent blocks : No
Null samples used in CRC calculations : Yes
Used interface : Installed external ASPI interface

Used output format : Internal WAV Routines
Sample format : 44.100 Hz; 16 Bit; Stereo

TOC of the extracted CD

Track | Start | Length | Start sector | End sector
---------------------------------------------------------
1 | 0:00.00 | 5:12.05 | 0 | 23404
2 | 5:12.05 | 4:28.50 | 23405 | 43554
3 | 9:40.55 | 5:00.15 | 43555 | 66069
4 | 14:40.70 | 5:43.47 | 66070 | 91841
5 | 20:24.42 | 6:51.65 | 91842 | 122731

Range status and errors

Selected range

Filename D:\! EAC_Rips\Sade -1992- The Remix Deluxe (ESCA 5700. Japan only EP)\Sade - The Remix Deluxe (ESCA 5700. Japan only

EP).wav

Peak level 100.0 %
Range quality 99.9 %
Test CRC C5D3C694
Copy CRC C5D3C694
Copy OK

No errors occurred

AccurateRip summary

Track 1 accurately ripped (confidence 2) [D6F92F08]
Track 2 accurately ripped (confidence 2) [1CB8053F]
Track 3 accurately ripped (confidence 2) [975A7EC7]
Track 4 accurately ripped (confidence 2) [E761D0B2]
Track 5 accurately ripped (confidence 2) [98BCCD42]

All tracks accurately ripped

End of status report
Свернуть
Свернуть
"Sade - Cherish The Day"

Изображение

Год записи: 1993
Год выпуска диска: 1993
Производитель диска: EU
Аудио кодек: FLAC
Тип рипа: image+.cue
Время звучания: 25:22

Трэклист:
01. Cherish The Day (Remix Short Version)
02. Cherish The Day (Remix Long Version)
03. Cherish The Day (Ronin Remix)
04. Cherish The Day (Pal Joey Remix)
"Лог EAC"

Exact Audio Copy V0.99 prebeta 5

from 4. May 2009

EAC extraction logfile from 18. September 2009, 23:41

Sade / Cherish The Day (Epic 659481 2)

Used drive : PLEXTOR CD-R PX-230A Adapter: 1 ID: 0

Read mode : Secure
Utilize accurate stream : Yes
Defeat audio cache : Yes
Make use of C2 pointers : No

Read offset correction : 738
Overread into Lead-In and Lead-Out : No
Fill up missing offset samples with silence : Yes
Delete leading and trailing silent blocks : No
Null samples used in CRC calculations : Yes
Used interface : Installed external ASPI interface

Used output format : Internal WAV Routines
Sample format : 44.100 Hz; 16 Bit; Stereo

TOC of the extracted CD

Track | Start | Length | Start sector | End sector
---------------------------------------------------------
1 | 0:00.00 | 5:18.67 | 0 | 23916
2 | 5:18.67 | 6:21.38 | 23917 | 52529
3 | 11:40.30 | 6:59.52 | 52530 | 84006
4 | 18:40.07 | 6:42.48 | 84007 | 114204

Range status and errors

Selected range

Filename D:\! EAC_Rips\Sade -1993- Cherish The Day (Epic 659481 2)\Sade - Cherish The Day (Epic 659481 2).wav

Peak level 87.0 %
Range quality 100.0 %
Test CRC 5B7CEED9
Copy CRC 5B7CEED9
Copy OK

No errors occurred

AccurateRip summary

Track 1 accurately ripped (confidence 1) [5F27547E]
Track 2 accurately ripped (confidence 1) [CD72A084]
Track 3 accurately ripped (confidence 1) [C1009EEC]
Track 4 accurately ripped (confidence 1) [9AFA121F]

All tracks accurately ripped

End of status report
Свернуть
Свернуть
Свернуть
"Projects "

"Sweetback (members of Sade) - Sweetback"
Изображение

Год выпуска диска: 1996
Производитель диска: Japan
Аудио кодек: FLAC
Тип рипа: image+.cue
Время звучания: 58:15

Трэклист:
01. Gaze (feat. Amel Larrieux)
02. Softly Softly (feat. Maxwell)
03. Sensations
04. Au Natural
05. Arabesque
06. You Will Rise (feat. Amel Larrieux)
07. Chord
08. Walk Of Ju
09. Hope She'll Be Happier (feat. Leroy Osbourne)
10. Come Dubbing
11. Cloud People
12. Powder
"Лог EAC"

Exact Audio Copy V0.99 prebeta

5 from 4. May 2009

EAC extraction logfile from 12. September 2009, 1:48

Sweetback / Sweetback (ESCA 6609)

Used drive : PLEXTOR CD-R PX-230A Adapter: 1 ID: 0

Read mode : Secure
Utilize accurate stream : Yes
Defeat audio cache : Yes
Make use of C2 pointers : No

Read offset correction : 738
Overread into Lead-In and Lead-Out : No
Fill up missing offset samples with silence : Yes
Delete leading and trailing silent blocks : No
Null samples used in CRC calculations : Yes
Used interface : Installed external ASPI interface

Used output format : Internal WAV Routines
Sample format : 44.100 Hz; 16 Bit; Stereo

TOC of the extracted CD

Track | Start | Length | Start sector | End sector
---------------------------------------------------------
1 | 0:00.00 | 5:26.52 | 0 | 24501
2 | 5:26.52 | 4:29.20 | 24502 | 44696
3 | 9:55.72 | 4:30.00 | 44697 | 64946
4 | 14:25.72 | 4:14.55 | 64947 | 84051
5 | 18:40.52 | 3:37.10 | 84052 | 100336
6 | 22:17.62 | 6:29.08 | 100337 | 129519
7 | 28:46.70 | 3:30.72 | 129520 | 145341
8 | 32:17.67 | 4:06.38 | 145342 | 163829
9 | 36:24.30 | 6:16.50 | 163830 | 192079
10 | 42:41.05 | 4:41.60 | 192080 | 213214
11 | 47:22.65 | 5:30.00 | 213215 | 237964
12 | 52:52.65 | 5:22.47 | 237965 | 262161

Range status and errors

Selected range

Filename D:\! EAC_Rips\Sade (Japan) [rutracker.org]\Sweetback -1996- Sweetback (ESCA 6609)\Sweetback - Sweetback (ESCA 6609).wav

Peak level 99.6 %
Range quality 100.0 %
Test CRC 1E8BEC9F
Copy CRC 1E8BEC9F
Copy OK

No errors occurred

AccurateRip summary

Track 1 not present in database
Track 2 not present in database
Track 3 not present in database
Track 4 not present in database
Track 5 not present in database
Track 6 not present in database
Track 7 not present in database
Track 8 not present in database
Track 9 not present in database
Track 10 not present in database
Track 11 not present in database
Track 12 not present in database

None of the tracks are present in the AccurateRip database

End of status report
Свернуть
Свернуть
"Bootlegs"

"Sade - Forever Best! (2CD)"

Изображение

Год выпуска диска: 2005
Производитель диска: Russia
Аудио кодек: FLAC
Тип рипа: image+.cue
Время звучания: 01:19:44 + 01:19:46

"Трэклист CD1"

01. Smooth Operator
02. Your Love Is King
03. By Your Side
04. No Ordinary Love
05. Bullet Proof Soul
06. Lovers Rock
07. King Of Sorrow
08. Clean Heart
09. Nothing Can Come Between Us
10. Hang On To Your Love
11. Cherry Pie
12. Keep Looking
13. Frankie's First Affair
14. All About Our Love
15. I Will Be Your Friend
16. Mr. Wrong
17. Every Word


"Трэклист CD2"

01. The Sweetest Taboo
02. Siempre Hay Esperanza
03. Cherish The Day
04. Tar Baby
05. Paradise
06. Never As Good As The First Time
07. Somebody Already Broke My Heart
08. Love Is Stronger Than Pride
09. Is It A Crime
10. Sally
11. Jezebel
12. Feel No Pain
13. Kiss Of Life
14. Like A Tattoo
15. Haunt Me
16. Pearls

"Лог EAC - CD1"

Exact Audio Copy V0.99 prebeta 5

from 4. May 2009

Отчёт EAC об извлечении, выполненном 12. июля 2009, 19:20

Sade / Forever Best! CD01

Дисковод: PLEXTOR CD-R PX-230A Adapter: 3 ID: 2

Режим чтения : Достоверность
Использование точного потока : Да
Отключение кэша аудио : Да
Использование указателей C2 : Нет

Коррекция смещения при чтении : 738
Способность читать области Lead-in и Lead-out : Нет
Заполнение пропущенных сэмплов тишиной : Да
Удаление блоков с тишиной в начале и конце : Нет
При вычислениях CRC использовались нулевые сэмплы : Да
Интерфейс : Встроенный Win32-интерфейс для Win NT/2000

Выходной формат : Внутренние WAV-операции
Формат сэмплов : 44.100 Гц; 16 бит; стерео

TOC извлечённого CD

Трек | Старт | Длительность | Начальный сектор | Конечный сектор
---------------------------------------------------------------------
1 | 0:00.00 | 4:57.62 | 0 | 22336
2 | 4:57.62 | 3:38.29 | 22337 | 38715
3 | 8:36.16 | 4:34.23 | 38716 | 59288
4 | 13:10.39 | 7:18.57 | 59289 | 92195
5 | 20:29.21 | 5:23.74 | 92196 | 116494
6 | 25:53.20 | 4:12.48 | 116495 | 135442
7 | 30:05.68 | 4:52.32 | 135443 | 157374
8 | 34:58.25 | 4:00.74 | 157375 | 175448
9 | 38:59.24 | 4:22.36 | 175449 | 195134
10 | 43:21.60 | 5:51.52 | 195135 | 221511
11 | 49:13.37 | 6:17.50 | 221512 | 249836
12 | 55:31.12 | 5:20.13 | 249837 | 273849
13 | 60:51.25 | 4:36.69 | 273850 | 294618
14 | 65:28.19 | 2:39.26 | 294619 | 306569
15 | 68:07.45 | 4:42.14 | 306570 | 327733
16 | 72:49.59 | 2:50.46 | 327734 | 340529
17 | 75:40.30 | 4:03.60 | 340530 | 358814

Характеристики диапазона извлечения и сообщения об ошибках

Выбранный диапазон

Имя файла D:\! EAC_Rips\Sade -2005- Forever Best! (bootleg)\CD1\Sade - Forever Best! CD01.wav

Пиковый уровень 100.0 %
Качество диапазона 100.0 %
CRC теста 08DDE9AE
CRC копии 08DDE9AE
Копирование... OK

Ошибок не произошло

AccurateRip: сводка

Трек 1 нет в базе данных
Трек 2 нет в базе данных
Трек 3 нет в базе данных
Трек 4 нет в базе данных
Трек 5 нет в базе данных
Трек 6 нет в базе данных
Трек 7 нет в базе данных
Трек 8 нет в базе данных
Трек 9 нет в базе данных
Трек 10 нет в базе данных
Трек 11 нет в базе данных
Трек 12 нет в базе данных
Трек 13 нет в базе данных
Трек 14 нет в базе данных
Трек 15 нет в базе данных
Трек 16 нет в базе данных
Трек 17 нет в базе данных

Ни одного трека нет в базе AccurateRip

Конец отчёта
Свернуть
"Лог EAC - CD2"

Exact Audio Copy V0.99 prebeta 5 from

4. May 2009

Отчёт EAC об извлечении, выполненном 12. июля 2009, 19:46

Sade / Forever Best! CD02

Дисковод: PLEXTOR CD-R PX-230A Adapter: 3 ID: 2

Режим чтения : Достоверность
Использование точного потока : Да
Отключение кэша аудио : Да
Использование указателей C2 : Нет

Коррекция смещения при чтении : 738
Способность читать области Lead-in и Lead-out : Нет
Заполнение пропущенных сэмплов тишиной : Да
Удаление блоков с тишиной в начале и конце : Нет
При вычислениях CRC использовались нулевые сэмплы : Да
Интерфейс : Встроенный Win32-интерфейс для Win NT/2000

Выходной формат : Внутренние WAV-операции
Формат сэмплов : 44.100 Гц; 16 бит; стерео

TOC извлечённого CD

Трек | Старт | Длительность | Начальный сектор | Конечный сектор
---------------------------------------------------------------------
1 | 0:00.00 | 4:36.38 | 0 | 20737
2 | 4:36.38 | 5:14.39 | 20738 | 44326
3 | 9:51.02 | 5:30.67 | 44327 | 69143
4 | 15:21.69 | 3:58.06 | 69144 | 86999
5 | 19:20.00 | 4:01.46 | 87000 | 105120
6 | 23:21.46 | 4:58.06 | 105121 | 127476
7 | 28:19.52 | 4:59.57 | 127477 | 149958
8 | 33:19.34 | 4:17.29 | 149959 | 169262
9 | 37:36.63 | 6:20.51 | 169263 | 197813
10 | 43:57.39 | 5:22.13 | 197814 | 221976
11 | 49:19.52 | 5:28.54 | 221977 | 246630
12 | 54:48.31 | 5:08.37 | 246631 | 269767
13 | 59:56.68 | 5:49.21 | 269768 | 295963
14 | 65:46.14 | 3:37.25 | 295964 | 312263
15 | 69:23.39 | 5:49.35 | 312264 | 338473
16 | 75:12.74 | 4:32.40 | 338474 | 358913

Характеристики диапазона извлечения и сообщения об ошибках

Выбранный диапазон

Имя файла D:\! EAC_Rips\Sade -2005- Forever Best! (bootleg)\CD2\Sade - Forever Best! CD02.wav

Пиковый уровень 100.0 %
Качество диапазона 100.0 %
CRC теста B577F3AF
CRC копии B577F3AF
Копирование... OK

Ошибок не произошло

AccurateRip: сводка

Трек 1 нет в базе данных
Трек 2 нет в базе данных
Трек 3 нет в базе данных
Трек 4 нет в базе данных
Трек 5 нет в базе данных
Трек 6 нет в базе данных
Трек 7 нет в базе данных
Трек 8 нет в базе данных
Трек 9 нет в базе данных
Трек 10 нет в базе данных
Трек 11 нет в базе данных
Трек 12 нет в базе данных
Трек 13 нет в базе данных
Трек 14 нет в базе данных
Трек 15 нет в базе данных
Трек 16 нет в базе данных

Ни одного трека нет в базе AccurateRip

Конец отчёта
Свернуть
Свернуть
Свернуть
_________________


Последний раз редактировалось Шнурок 2011-11-02 20:59, всего редактировалось 4 раз(а).
Не в сети
Профиль  
 Добавлено: 2010-03-02 19:52 (спустя 23 минуты)
Всегда с нами
Аватара пользователя
Стаж: 9 лет 4 месяца
Сообщений: 969
Спасибок: 1204
Лайков: 7
Шнурок
Респект за очередной классный релиз! *THUMBS UP*
_________________
Изображение
Не в сети
Профиль  
 Добавлено: 2010-03-02 20:14 (спустя 22 минуты)
Top-seeder
Аватара пользователя
Стаж: 8 лет 8 месяцев
Сообщений: 170
Спасибок: 1396
Лайков: 1
[:-} Спасибо !!! Есть оригинальные альбомы (не ремастированные), если надо, пишите в личку. :-[
_________________
Не в сети
Профиль  
 Добавлено: 2010-03-02 20:46 (спустя 31 минута)
Всегда с нами
Аватара пользователя
Стаж: 9 лет 4 месяца
Сообщений: 969
Спасибок: 1204
Лайков: 7
Шнурок
Ну последний-то альбом в раздаче (Sade - Soldier Of Love) точно не ремастер :))
_________________
Изображение
Не в сети
Профиль  
 Добавлено: 2010-03-03 09:25 (спустя 12 часов)
Top-seeder
Аватара пользователя
Стаж: 8 лет 8 месяцев
Сообщений: 170
Спасибок: 1396
Лайков: 1
Майк Ястребов
Да, извиняюсь, все под одно пошло. Изменить?
_________________
Не в сети
Профиль  
 Добавлено: 2010-10-03 19:26 (спустя 7 месяцев)
Стаж: 7 лет 8 месяцев
Сообщений: 40
Встаньте кто-нибудь пожалуйста на раздачу!!! Очень хочется послушать!!
Не в сети
Профиль  
 Добавлено: 2010-12-26 15:34 (спустя 2 месяца 22 дня)
Стаж: 7 лет 10 месяцев
Сообщений: 5
Спасибок: 1
Дайте СКОРОСТИ!!!
Не в сети
Профиль  
 Добавлено: 2011-10-11 20:52 (спустя 9 месяцев)
Top-seeder
Аватара пользователя
Стаж: 8 лет 8 месяцев
Сообщений: 170
Спасибок: 1396
Лайков: 1
Обновила торрент т.к. добавлен альбом 2011-"Sade - The Ultimate Collection". Кто хочет раздавать, просто обновите торрент.
Не в сети
Профиль  
 Добавлено: 2012-05-01 21:37 (спустя 6 месяцев)
Аватара пользователя
Стаж: 6 лет 7 месяцев
Сообщений: 20
Народ, раздайте, плз :( :ny_tik:
Не в сети
Профиль  
 Добавлено: 2012-08-31 20:14 (спустя 3 месяца 29 дней)
Стаж: 7 лет 3 месяца
Сообщений: 6
встаньте на раздачу пожалуйста!!!
Не в сети
Профиль  
 Добавлено: 2013-01-05 14:40 (спустя 4 месяца 4 дня)
Аватара пользователя
Стаж: 9 лет 9 месяцев
Сообщений: 399
спасибо ! !
Не в сети
Профиль  
 Добавлено: 2017-05-28 14:11 (спустя 4 года 4 месяца)
Аватара пользователя
Стаж: 7 лет 8 месяцев
Сообщений: 15
Лайков: 1
Раздайте пожалуйста!!!!! :ny_tik:
Не в сети
Профиль  
Начать новую темуОтветить на тему  [ Сообщений: 12 ] 
Вы не можете начинать темы
Вы не можете отвечать на сообщения
Вы не можете редактировать свои сообщения
Вы не можете удалять свои сообщения