Начать новую темуОтветить на тему  [ 1 сообщение ] 
Торрент файл
Размер: 26.32 GB • Зарегистрирован: 3 дня • Статус: * Не проверено
Скачан: 8 раз • Желающих скачать: 0 • Поблагодарили: 0 раз
 Раздают: 1  |  789 KB/s  ]   Качают: 0  |  0 KB/s  ] 
Сообщения
 Добавлено: 2017-03-18 21:06
Аватара пользователя
Стаж: 3 года 6 месяцев
Сообщений: 474
Спасибок: 1091
Лайков: 67
Следствие вели... с Леонидом Каневским (2017)

Изображение

Год выпуска: 2016, 2017
Страна: Россия
Студия: Версия
Жанр: Документальный цикл, криминал
Продолжительность: 00:40:35/серия
Перевод: Не требуется
Русские субтитры: нет
Режиссер: Александр Ярославцев

Описание: Эти уголовные дела гремели на весь Советский Союз. По ним были написаны романы и сняты художественные фильмы. Их фигуранты — миллионеры эпохи социализма, хитроумные воры, профессиональные грабители и валютчики. Они бросили вызов советскому обществу. Вызов приняли лучшие сыщики страны. В их распоряжении не было компьютеров, сотовой связи и бойцов ОМОНа. Но это не мешало вершиться правосудию. Банда «Черная кошка», дело банды советских гангстеров конца 60-х годов, прозванных «Фантомасами», увлекательная история налетчика Леонида Пантелеева, «свободного художника-грабителя» — эти случаи вошли в историю отечественной криминалистики.

<< Следствие вели... с Леонидом Каневским 2017 >>
  • Выпуск 367. Лучший папа (26.03.2017)
  • Выпуск 366. Мужики!.. подлинная история (19.03.2017)
  • Выпуск 365 Круговая порука (12.03.2017)
  • Выпуск 364 Мелкий бес (05.03.2017)
  • Выпуск 363 Порочная любовь (26.02.2017)
  • Выпуск 362 Охотник за волосами (19.02.2017)
  • Выпуск 361 Багровый лед (12.02.2017)
  • Выпуск 360 Замороженный труп (05.02.2017)
Свернуть

27.03.2017, последний добавленый эпизод: Выпуск 367. Лучший папа (26.03.2017) ,
перезаливаем


Сэмпл: http://multi-up.com/1139427
Тип релиза: HDTV 1080i
Контейнер: TS
Видео: AVC, 1920x1080, (16:9), 25 fps, 11 100 Kbps
Аудио: MP2, 48 kHz; 2 ch; 192 kbps
MediaInfo
General
ID                                       : 1 (0x1)
Complete name                            : C:\Выпуск 360 Замороженный труп (05.02.2017).ts
Format                                   : MPEG-TS
File size                                : 3.60 GiB
Duration                                 : 43 min 22 s
Overall bit rate mode                    : Variable
Overall bit rate                         : 11.9 Mb/s
Video
ID                                       : 201 (0xC9)
Menu ID                                  : 2201 (0x899)
Format                                   : AVC
Format/Info                              : Advanced Video Codec
Format profile                           : High@L4
Format settings, CABAC                   : Yes
Format settings, ReFrames                : 4 frames
Codec ID                                 : 27
Duration                                 : 43 min 25 s
Bit rate                                 : 11.1 Mb/s
Width                                    : 1 920 pixels
Height                                   : 1 080 pixels
Display aspect ratio                     : 16:9
Frame rate                               : 25.000 FPS
Standard                                 : Component
Color space                              : YUV
Chroma subsampling                       : 4:2:0
Bit depth                                : 8 bits
Scan type                                : Interlaced
Scan type, store method                  : Separated fields
Scan order                               : Top Field First
Bits/(Pixel*Frame)                       : 0.214
Stream size                              : 3.36 GiB (93%)
Color range                              : Limited
Color primaries                          : BT.709
Transfer characteristics                 : BT.709
Matrix coefficients                      : BT.709
Audio
ID                                       : 301 (0x12D)
Menu ID                                  : 2201 (0x899)
Format                                   : MPEG Audio
Format version                           : Version 1
Format profile                           : Layer 2
Codec ID                                 : 3
Duration                                 : 43 min 25 s
Bit rate mode                            : Constant
Bit rate                                 : 192 kb/s
Channel(s)                               : 2 channels
Sampling rate                            : 48.0 kHz
Compression mode                         : Lossy
Stream size                              : 59.6 MiB (2%)
Language                                 : Russian
Свернуть

Seed+
Напоминаем, что такая пометка указывает на сиды, не учтенные в статистике данного трекера. Т.Е. при 0 сидов здесь, раздачу нельзя считать мертвой.
Свернуть


Скриншоты
Изображение
Изображение
Изображение

Свернуть
примагнититься
magnet:?xt=urn:btih:62A2503D3CFA96968528589DA9747C0DC3517EE3&tr=http%3A%2F%2Fbt3.t-ru.org%2Fann%3Fmagnet&dn=%D0%A1%D0%BB%D0%B5%D0%B4%D1%81%D1%82%D0%B2%D0%B8%D0%B5%20%D0%B2%D0%B5%D0%BB%D0%B8...%20%D1%81%20%D0%9B%D0%B5%D0%BE%D0%BD%D0%B8%D0%B4%D0%BE%D0%BC%20%D0%9A%D0%B0%D0%BD%D0%B5%D0%B2%D1%81%D0%BA%D0%B8%D0%BC%202017%20(8%20%D0%B2%D1%8B%D0%BF%D1%83%D1%81%D0%BAo%D0%B2)%20(%D0%90%D0%BB%D0%B5%D0%BA%D1%81%D0%B0%D0%BD%D0%B4%D1%80%20%D0%AF%D1%80%D0%BE%D1%81%D0%BB%D0%B0%D0%B2%D1%86%D0%B5%D0%B2)%20%5B2017%2C%20%D0%94%D0%BE%D0%BA%D1%83%D0%BC%D0%B5%D0%BD%D1%82%D0%B0%D0%BB%D1%8C%D0%BD%D1%8B%D0%B9%20%D1%86%D0%B8%D0%BA%D0%BB%2C%20%D0%BA%D1%80%D0%B8%D0%BC%D0%B8%D0%BD%D0%B0%D0%BB%2C%20HDTV%201080i%5D
Свернуть

Следствие вели... с Леонидом Каневским 2016 (1080i)
Не в сети
Профиль  
Начать новую темуОтветить на тему  [ 1 сообщение ] 
Вы не можете начинать темы
Вы не можете отвечать на сообщения
Вы не можете редактировать свои сообщения
Вы не можете удалять свои сообщения