Начать новую темуОтветить на тему  [ Сообщений: 2 ] 
Торрент файл
Размер: 57.44 GB • Зарегистрирован: 3 дня • Статус: * Не проверено
Скачан: 22 раза • Желающих скачать: 0 • Поблагодарили: 0 раз
 Раздают: 0  |  0 KB/s  ]   Качают: 0  |  0 KB/s  ] 
 Полного источника не было 1 день 6 часов 
Сообщения
 Добавлено: 2017-03-18 21:06
Аватара пользователя
Стаж: 3 года 9 месяцев
Сообщений: 500
Спасибок: 1114
Лайков: 72
Следствие вели... с Леонидом Каневским (2017)

Изображение

Год выпуска: 2016, 2017
Страна: Россия
Студия: Версия
Жанр: Документальный цикл, криминал
Продолжительность: ~00:43:22/серия
Перевод: Не требуется
Русские субтитры: нет
Режиссер: Александр Ярославцев

Описание: Эти уголовные дела гремели на весь Советский Союз. По ним были написаны романы и сняты художественные фильмы. Их фигуранты — миллионеры эпохи социализма, хитроумные воры, профессиональные грабители и валютчики. Они бросили вызов советскому обществу. Вызов приняли лучшие сыщики страны. В их распоряжении не было компьютеров, сотовой связи и бойцов ОМОНа. Но это не мешало вершиться правосудию. Банда «Черная кошка», дело банды советских гангстеров конца 60-х годов, прозванных «Фантомасами», увлекательная история налетчика Леонида Пантелеева, «свободного художника-грабителя» — эти случаи вошли в историю отечественной криминалистики.

<< Следствие вели... с Леонидом Каневским 2017 >>
  • Выпуск 377. Министр с топором (18.06.2017)
  • Выпуск 376. Плата по счетам (11.06.2017)
  • Выпуск 375 Лабиринт (04.06.2017)
  • Выпуск 374. Любовь зла... (28.05.2017)
  • Выпуск 373. Праздничный убийца (21.05.2017)
  • Выпуск 372. Смерть на грядках (14.05.2017)
  • Выпуск 371. Опасный любовник (30.04.2017)
  • Выпуск 370. Сыворотка правды (23.04.2017)
  • Выпуск 369. Дуэль (09.04.2017)
  • Выпуск 368. Когда цвели сады... (02.04.2017)
  • Выпуск 367. Лучший папа (26.03.2017)
  • Выпуск 366. Мужики!.. подлинная история (19.03.2017)
  • Выпуск 365 Круговая порука (12.03.2017)
  • Выпуск 364 Мелкий бес (05.03.2017)
  • Выпуск 363 Порочная любовь (26.02.2017)
  • Выпуск 362 Охотник за волосами (19.02.2017)
  • Выпуск 361 Багровый лед (12.02.2017)
  • Выпуск 360 Замороженный труп (05.02.2017)
Свернуть

22.06.2017, последние добавленые эпизоды: Выпуск 377 Министр с топором (18.06.2017)
Выпуск 376 Плата по счетам (11.06.2017)
,
раздача перезалита.


Сэмпл: http://multi-up.com/1139427
Тип релиза: HDTV 1080i
Контейнер: TS
Видео: AVC, 1920x1080, (16:9), 25 fps, 11 100 Kbps
Аудио: MP2, 48 kHz; 2 ch; 192 kbps
MediaInfo
General
ID                                       : 1 (0x1)
Complete name                            : C:\Выпуск 360 Замороженный труп (05.02.2017).ts
Format                                   : MPEG-TS
File size                                : 3.60 GiB
Duration                                 : 43 min 22 s
Overall bit rate mode                    : Variable
Overall bit rate                         : 11.9 Mb/s
Video
ID                                       : 201 (0xC9)
Menu ID                                  : 2201 (0x899)
Format                                   : AVC
Format/Info                              : Advanced Video Codec
Format profile                           : High@L4
Format settings, CABAC                   : Yes
Format settings, ReFrames                : 4 frames
Codec ID                                 : 27
Duration                                 : 43 min 25 s
Bit rate                                 : 11.1 Mb/s
Width                                    : 1 920 pixels
Height                                   : 1 080 pixels
Display aspect ratio                     : 16:9
Frame rate                               : 25.000 FPS
Standard                                 : Component
Color space                              : YUV
Chroma subsampling                       : 4:2:0
Bit depth                                : 8 bits
Scan type                                : Interlaced
Scan type, store method                  : Separated fields
Scan order                               : Top Field First
Bits/(Pixel*Frame)                       : 0.214
Stream size                              : 3.36 GiB (93%)
Color range                              : Limited
Color primaries                          : BT.709
Transfer characteristics                 : BT.709
Matrix coefficients                      : BT.709
Audio
ID                                       : 301 (0x12D)
Menu ID                                  : 2201 (0x899)
Format                                   : MPEG Audio
Format version                           : Version 1
Format profile                           : Layer 2
Codec ID                                 : 3
Duration                                 : 43 min 25 s
Bit rate mode                            : Constant
Bit rate                                 : 192 kb/s
Channel(s)                               : 2 channels
Sampling rate                            : 48.0 kHz
Compression mode                         : Lossy
Stream size                              : 59.6 MiB (2%)
Language                                 : Russian
Свернуть

Seed+
Не забывайте, что такая пометка указывает на сиды, не учтенные в статистике данного трекера. Т.Е. при 0 сидов здесь, раздачу нельзя считать мертвой.
Свернуть


Скриншоты
Изображение
Изображение
Изображение

Свернуть
примагнититься
magnet:?xt=urn:btih:06A9DDED9FEB5FEC3AB2FBCDCFDB4A15A1D65978&tr=http%3A%2F%2Fbt3.t-ru.org%2Fann%3Fmagnet&dn=%D0%A1%D0%BB%D0%B5%D0%B4%D1%81%D1%82%D0%B2%D0%B8%D0%B5%20%D0%B2%D0%B5%D0%BB%D0%B8...%20%D1%81%20%D0%9B%D0%B5%D0%BE%D0%BD%D0%B8%D0%B4%D0%BE%D0%BC%20%D0%9A%D0%B0%D0%BD%D0%B5%D0%B2%D1%81%D0%BA%D0%B8%D0%BC%202017%20(18%20%D0%B2%D1%8B%D0%BF%D1%83%D1%81%D0%BAo%D0%B2)%20(%D0%90%D0%BB%D0%B5%D0%BA%D1%81%D0%B0%D0%BD%D0%B4%D1%80%20%D0%AF%D1%80%D0%BE%D1%81%D0%BB%D0%B0%D0%B2%D1%86%D0%B5%D0%B2)%20%5B2017%2C%20%D0%94%D0%BE%D0%BA%D1%83%D0%BC%D0%B5%D0%BD%D1%82%D0%B0%D0%BB%D1%8C%D0%BD%D1%8B%D0%B9%20%D1%86%D0%B8%D0%BA%D0%BB%2C%20%D0%BA%D1%80%D0%B8%D0%BC%D0%B8%D0%BD%D0%B0%D0%BB%2C%20HDTV%201080i%5D
Свернуть

Следствие вели... с Леонидом Каневским 2016 (1080i)


Последний раз редактировалось Dagel™ 2017-06-22 17:50, всего редактировалось 9 раз(а).
Не в сети
Профиль  
 Добавлено: 2017-06-22 18:05 (спустя 3 месяца 3 дня)
Аватара пользователя
Стаж: 3 года 9 месяцев
Сообщений: 500
Спасибок: 1114
Лайков: 72
10.04.2017 - Выпуск 369. Дуэль (09.04.2017)
25.04.2017- Выпуск 370. Сыворотка правды (23.04.2017)
07.05.2017- Выпуск 371. Опасный любовник (30.04.2017)
17.05.2017- Выпуск 372. Смерть на грядках (14.05.2017)
22.05.2017- Выпуск 373. Праздничный убийца (21.05.2017)
29.05.2017- Выпуск 374. Любовь зла... (28.05.2017)
05.06.2017 - Выпуск 375 Лабиринт (04.06.2017)

22.06.2017, последние добавленые эпизоды: Выпуск 377 Министр с топором (18.06.2017)
Выпуск 376 Плата по счетам (11.06.2017),

раздача перезалита.
_________________
чик
болванки
ИзображениеИзображениеИзображениеИзображениеИзображениеИзображениеИзображениеИзображениеИзображениеИзображениеИзображение
Свернуть


Последний раз редактировалось Dagel™ 2017-06-22 18:03, всего редактировалось 2 раз(а).

Тема поднималась пользователем Dagel™ 2017-06-22 18:05.
Не в сети
Профиль  
Начать новую темуОтветить на тему  [ Сообщений: 2 ] 
Вы не можете начинать темы
Вы не можете отвечать на сообщения
Вы не можете редактировать свои сообщения
Вы не можете удалять свои сообщения