Начать новую темуОтветить на тему  [ Сообщений: 6 ] 
Торрент файл
Размер: 12.47 GB • Зарегистрирован: 6 месяцев • Статус: * Не проверено
Скачан: 73 раза • Желающих скачать: 0 • Поблагодарили: 14 раз
 Раздают: 1  |  163 KB/s  ]   Качают: 0  |  0 KB/s  ] 
Сообщения
 Добавлено: 2016-05-24 14:02
RG-ELEKTRO
Аватара пользователя
Стаж: 2 года 3 месяца
Сообщений: 7928
Спасибок: 53754
Лайков: 3304
13 часов: Тайные солдаты Бенгази / 13 Hours: The Secret Soldiers of Benghazi



Изображение


Год выпуска: 2016
Страна: США (3 Arts Entertainment, Dune Films, Latina Pictures, Paramount Pictures)
Жанр: боевик, триллер, драма, военный
Продолжительность: 02:24:49
Перевод: Профессиональный (полное дублирование) | чистый звук

Режиссёр: Майкл Бэй
В ролях: Джон Красински, Джеймс Бэдж Дэйл, Пабло Шрайбер, Дэвид Денман, Доминик Фумуса, Макс Мартини, Алексия Бальер, Дэвид Костабайл
Описание: 2012 год. Бенгази, Ливия. Группа террористов решает «отпраздновать» события 11 сентября нападением на американское посольство. Шестерке бойцов из элитного спецотряда приказано вмешаться только в крайнем случае. Но когда под угрозой десятки жизней, долг и совесть берут верх над субординацией. И мужественные солдаты без колебаний вступают в бой с яростной группировкой боевиков. Бой, который для всех шестерых, скорее всего, станет последним...
Доп.информация: ПРИСУТСТВУЕТ РЕКЛАМА!

Изображение Изображение Изображение
Качество: BDRip 1080p
Формат: МКV
Видео кодек: MPEG-4 AVC
Аудио кодек: AC3
Видео: 1920x800 (2.40:1), 23.976 fps, MPEG-4 AVC ~11.3 Mbps avg
Аудио #1: 48.0 kHz, AC3 Dolby Digital, 2 ch, ~640 kbps [Профессиональный (полное дублирование) | чистый звук]
Аудио #2: 48.0 kHz, AC3 Dolby Digital, 6 ch, ~640 kbps | ENG

"MI"
General
Unique ID : 172732108422951209950580827166174642601 (0x81F2FE769488C5E2A98E99C7687481A9)
Format : Matroska
Format version : Version 4 / Version 2
Overall bit rate mode : Constant
Overall bit rate : 12.9 Mbps
Movie name : MoreFilms
Encoded date : UTC 2016-05-25 22:18:48
Writing application : mkvmerge v8.8.0 ('Wind at my back') 64bit
Writing library : libebml v1.3.3 + libmatroska v1.4.4
DURATION : 00:00:37.056000000
NUMBER_OF_FRAMES : 1158
NUMBER_OF_BYTES : 2964480
_STATISTICS_WRITING_APP : mkvmerge v8.8.0 ('Wind at my back') 64bit
_STATISTICS_WRITING_DATE_UTC : 2016-05-25 22:18:48
_STATISTICS_TAGS : BPS DURATION NUMBER_OF_FRAMES NUMBER_OF_BYTES

Video
ID : 1
Format : AVC
Format/Info : Advanced Video Codec
Format profile : High@L4.1
Format settings, CABAC : Yes
Format settings, ReFrames : 5 frames
Codec ID : V_MPEG4/ISO/AVC
Bit rate mode : Constant
Bit rate : 11.3 Mbps
Nominal bit rate : 12.0 Mbps
Width : 1 920 pixels
Height : 800 pixels
Display aspect ratio : 2.40:1
Frame rate mode : Constant
Frame rate : 23.976 fps
Standard : Component
Color space : YUV
Chroma subsampling : 4:2:0
Bit depth : 8 bits
Scan type : Progressive
Bits/(Pixel*Frame) : 0.307
Stream size : 50.0 MiB (88%)
Language : English
Default : Yes
Forced : No
Color range : Limited
Color primaries : BT.709
Transfer characteristics : BT.709
Matrix coefficients : BT.709

Audio #1
ID : 2
Format : AC-3
Format/Info : Audio Coding 3
Mode extension : CM (complete main)
Format settings, Endianness : Big
Codec ID : A_AC3
Bit rate mode : Constant
Bit rate : 640 Kbps
Channel(s) : 2 channels
Channel positions : Front: L R
Sampling rate : 48.0 KHz
Compression mode : Lossy
Delay relative to video : 10ms
Stream size : 2.83 MiB (5%)
Language : Russian
Default : Yes
Forced : Yes

Audio #2
ID : 3
Format : AC-3
Format/Info : Audio Coding 3
Mode extension : CM (complete main)
Format settings, Endianness : Big
Codec ID : A_AC3
Bit rate mode : Constant
Bit rate : 640 Kbps
Channel(s) : 6 channels
Channel positions : Front: L C R, Side: L R, LFE
Sampling rate : 48.0 KHz
Compression mode : Lossy
Stream size : 2.83 MiB (5%)
Language : English
Default : No
Forced : No
Свернуть

Скриншоты
Изображение
Изображение
Изображение
Свернуть
Изображение


Изображение Изображение
_________________
Не ищите меня в "ВКонтакте", в "Одноклассниках" меня нет - я на трекерах сижу!


Последний раз редактировалось Оля 88 2016-05-26 09:10, всего редактировалось 1 раз.
Не в сети
Профиль  
 Добавлено: 2016-05-25 22:18 (спустя 1 день 8 часов)
Музыкоед
Аватара пользователя
Стаж: 7 лет 4 месяца
Сообщений: 2103
Лайков: 466
Рейтинг "Кинопоиска" на момент, когда я сюда заглянул - 6.66. Дьявольский рейтинг, иначе не скажешь...
Не в сети
Профиль  
 Добавлено: 2016-05-26 09:11 (спустя 10 часов)
RG-ELEKTRO
Аватара пользователя
Стаж: 2 года 3 месяца
Сообщений: 7928
Спасибок: 53754
Лайков: 3304
Заменен на BDRip 1080p и чистый звук
_________________
Не ищите меня в "ВКонтакте", в "Одноклассниках" меня нет - я на трекерах сижу!
 Dagel™ нравится это.
Не в сети
Профиль  
 Добавлено: 2016-05-27 23:39 (спустя 1 день 14 часов)
Аватара пользователя
Стаж: 8 лет 7 месяцев
Возраст: 28
Сообщений: 205
Лайков: 1
Присутствует реклама. Зачем?
_________________
Intel Core i7 860 3,36 , Asus Maximus Formula III, 8 Gb DDR3 1600 оперативы, GTX 580.
Не в сети
Профиль  
 Добавлено: 2016-05-27 23:52 (спустя 13 минут)
Аватара пользователя
Стаж: 3 года 2 месяца
Сообщений: 436
Спасибок: 1063
Лайков: 61

Stomatorg:

Зачем?
затем чтобы знали что она присутствует.
_________________
Изображение Изображение
╬ Хоть на ННпортале я недолго есть,
Уж достижений скромных виден блеск.
ИзображениеИзображениеИзображениеИзображениеИзображениеИзображениеИзображениеИзображениеИзображениеИзображение
Изображение
Свернуть
 Оля 88 нравится это.
Не в сети
Профиль  
 Добавлено: 2016-05-28 13:42 (спустя 13 часов)
Top-seeder
Аватара пользователя
Стаж: 7 лет 6 месяцев
Возраст: 27
Сообщений: 2421
Спасибок: 455
Лайков: 14

Mr Know-All:

Рейтинг "Кинопоиска" на момент, когда я сюда заглянул - 6.66. Дьявольский рейтинг, иначе не скажешь...
ниже в два раза должен быть.. кино про суперменов американских :-D
Не в сети
Профиль  
Начать новую темуОтветить на тему  [ Сообщений: 6 ] 
Вы не можете начинать темы
Вы не можете отвечать на сообщения
Вы не можете редактировать свои сообщения
Вы не можете удалять свои сообщения