Начать новую темуОтветить на тему  [ Сообщений: 2 ] 
Торрент файл
Размер: 3.01 GB • Зарегистрирован: 9 месяцев • Статус: * Не проверено
Скачан: 150 раз • Желающих скачать: 0 • Поблагодарили: 19 раз
 Раздают: 1  |  0 KB/s  ]   Качают: 0  |  0 KB/s  ] 
Сообщения
 Добавлено: 2016-02-25 08:05
RG-ELEKTRO
Аватара пользователя
Стаж: 2 года 3 месяца
Сообщений: 7928
Спасибок: 53752
Лайков: 3304
30 свиданий


Изображение

Изображение


Год выпуска: 2015
Страна: Россия
Жанр: комедия, мелодрама
Продолжительность: 01:28:36

Режиссёр: Татьяна Капитан
В ролях: Наталия Медведева, Никита Панфилов, Дмитрий Богдан, Сергей Аброскин, Ирина Гринёва, Данила Якушев, Гарик Харламов, Никита Джигурда, Сергей Баталов, Ольга Тумайкина
Описание: На что только не пойдешь, чтобы обрести счастье?! Невезучая Даша верит в найденный в интернете способ — в течение месяца сходить на 30 свиданий, а затем мужчина твоей мечты сам найдет тебя. Только остаться бы живой после встреч с самыми безумными кавалерами и пробовать разглядеть среди них того самого.

Изображение
Качество: WEB-DL 1080p
Формат: MKV
Видео кодек: MPEG-4 AVC
Аудио кодек: AC3
Видео: MPEG-4 AVC, 1920x806, 4384 kbps
Аудио #1: 384 kbps, AC3

"MI"
General
Unique ID : 189715268330569508451800964825694755574 (0x8EB9D4E4F3B67F7FB0E5DC107CCA5AF6)
Complete name : D:\фильмы\30.CBydaHy1.2015.O.WEB-DL.1080p.mkv
Format : Matroska
Format version : Version 4 / Version 2
File size : 3.01 GiB
Duration : 1h 28mn
Overall bit rate : 4 865 Kbps
Encoded date : UTC 2016-02-24 19:15:44
Writing application : mkvmerge v8.3.0 ('Over the Horizon') 64bit
Writing library : libebml v1.3.1 + libmatroska v1.4.2

Video
ID : 1
Format : AVC
Format/Info : Advanced Video Codec
Format profile : High@L4
Format settings, CABAC : Yes
Format settings, ReFrames : 5 frames
Codec ID : V_MPEG4/ISO/AVC
Duration : 1h 28mn
Bit rate : 4 479 Kbps
Width : 1 920 pixels
Height : 806 pixels
Display aspect ratio : 2.40:1
Frame rate mode : Constant
Frame rate : 25.000 fps
Color space : YUV
Chroma subsampling : 4:2:0
Bit depth : 8 bits
Scan type : Progressive
Bits/(Pixel*Frame) : 0.116
Stream size : 2.77 GiB (92%)
Language : English
Default : Yes
Forced : No
Color range : Limited
Color primaries : BT.709
Transfer characteristics : BT.709
Matrix coefficients : BT.709

Audio
ID : 2
Format : AC-3
Format/Info : Audio Coding 3
Mode extension : CM (complete main)
Format settings, Endianness : Big
Codec ID : A_AC3
Duration : 1h 28mn
Bit rate mode : Constant
Bit rate : 384 Kbps
Channel(s) : 6 channels
Channel positions : Front: L C R, Side: L R, LFE
Sampling rate : 48.0 KHz
Frame rate : 31.250 fps (1536 spf)
Compression mode : Lossy
Stream size : 243 MiB (8%)
Language : Russian
Default : Yes
Forced : No

Menu
00:00:00.000 : en:Глава 1
00:05:35.560 : en:Глава 2
00:11:09.520 : en:Глава 3
00:16:57.000 : en:Глава 4
00:22:31.920 : en:Глава 5
00:27:50.160 : en:Глава 6
00:34:34.160 : en:Глава 7
00:39:41.080 : en:Глава 8
00:45:15.800 : en:Глава 9
00:50:44.960 : en:Глава 10
00:56:05.360 : en:Глава 11
01:01:24.000 : en:Глава 12
01:07:53.480 : en:Глава 13
01:13:09.400 : en:Глава 14
01:18:43.800 : en:Глава 15

Свернуть

Скриншоты
Изображение
Изображение
Изображение

Свернуть
Изображение


Изображение Изображение
Не в сети
Профиль  
 Добавлено: 2016-03-16 20:45 (спустя 20 дней)
Стаж: 8 лет 3 месяца
Сообщений: 36
Спасибок: 12
смотреть или не смотреть - вот в чем вопрос :du_ma_et:
Не в сети
Профиль  
Начать новую темуОтветить на тему  [ Сообщений: 2 ] 
Вы не можете начинать темы
Вы не можете отвечать на сообщения
Вы не можете редактировать свои сообщения
Вы не можете удалять свои сообщения