Начать новую темуОтветить на тему  [ 1 сообщение ] 
Торрент файл
Размер: 10.47 GB • Зарегистрирован: 6 месяцев • Статус: * Не проверено
Скачан: 35 раз • Желающих скачать: 0 • Поблагодарили: 9 раз
 Раздают: 1  |  25 KB/s  ]   Качают: 0  |  0 KB/s  ] 
Сообщения
 Добавлено: 2016-05-28 18:40
RG-ELEKTRO
Аватара пользователя
Стаж: 2 года 3 месяца
Сообщений: 7928
Спасибок: 53788
Лайков: 3304
Антиганг / Antigang

Изображение

Изображение


Год выпуска: 2015
Страна: Франция (Capture The Flag Films)
Жанр: Боевик, драма
Продолжительность: 01:33:43
Перевод: Профессиональный (дубляж) + Оригинальная звуковая дорожка
Субтитры: Английские

Режиссёр: Бенжамен Роше
В ролях: Жан Рено, Элбан Ленуар, Катерина Мурино, Умар Диау, Стефи Сельма, Себастьен ЛаЛэйнн, Тьерри Нёвик, Жан-Туссен Бернард, Якоб Седергрен, Эстер Козёль
Описание: Серж Бюрен — легендарный полицейский, возглавляющий группу молодых приспешников с нетипичным подходом. И неважно, используют ли они бейсбольные биты или напрочь забывают об уставе во время показательных арестов, результат налицо. В то же время группировка смертоносных грабителей с легкостью обчищает столичные банки и ювелирные магазины. Бюрен и его подразделение попадают в непростую ситуацию: окажутся ли привычные им методы быстрого реагирования достаточными, для того чтобы остановить преступников?

ИзображениеИзображение
Качество: BDRip 1080p
Формат: MKV
Видео кодек: MPEG-4 AVC
Аудио кодек: AC3 / DTS
Видео: MPEG-4 AVC, 1920x800, 14.3 Mbit/s, 23.976 fps
Аудио #1: 48 kHz, AC3, 5.1, 384 Kbps [Профессиональный (дубляж)]
Аудио #2: 48 kHz, DTS, 5.1, 1510 kbps [Оригинальная звуковая дорожка]
Субтитры: Английские

"MI"
General
Unique ID : 222218262820155492934042119907342313655 (0xA72DAE3F706DEA70AC01FAAAD07468B7)
Complete name : F:VideoAntigang.2015.BDRip.1080p.ExKinoRay.mkv
Format : Matroska
Format version : Version 4 / Version 2
File size : 10.5 GiB
Duration : 1h 32mn
Overall bit rate : 16.2 Mbps
Movie name : Antigang.2015.BDRip.1080p.ExKinoRay
Encoded date : UTC 2016-05-28 14:17:21
Writing application : mkvmerge v8.3.0 ('Over the Horizon') 64bit
Writing library : libebml v1.3.1 + libmatroska v1.4.2

Video
ID : 1
Format : AVC
Format/Info : Advanced Video Codec
Format profile : High@L4.1
Format settings, CABAC : Yes
Format settings, ReFrames : 5 frames
Codec ID : V_MPEG4/ISO/AVC
Duration : 1h 32mn
Bit rate : 14.3 Mbps
Width : 1 920 pixels
Height : 800 pixels
Display aspect ratio : 2.40:1
Frame rate mode : Constant
Frame rate : 24.000 fps
Color space : YUV
Chroma subsampling : 4:2:0
Bit depth : 8 bits
Scan type : Progressive
Bits/(Pixel*Frame) : 0.387
Stream size : 9.25 GiB (88%)
Title : Antigang.2015.BDRip.1080p.ExKinoRay.***селезень***
Writing library : x264 core 148 r2638 7599210
Encoding settings : cabac=1 / ref=5 / deblock=1:-3:-3 / analyse=0x3:0x133 / me=umh / subme=11 / psy=1 / psy_rd=0.99:0.05 / mixed_ref=1 / me_range=64 / chroma_me=1 / trellis=2 / 8x8dct=1 / cqm=0 / deadzone=6,6 / fast_pskip=0 / chroma_qp_offset=-3 / threads=6 / lookahead_threads=1 / sliced_threads=0 / nr=0 / decimate=0 / interlaced=0 / bluray_compat=0 / constrained_intra=0 / bframes=8 / b_pyramid=2 / b_adapt=2 / b_bias=0 / direct=3 / weightb=1 / open_gop=1 / weightp=2 / keyint=250 / keyint_min=24 / scenecut=40 / intra_refresh=0 / rc_lookahead=250 / rc=crf / mbtree=1 / crf=15.9 / qcomp=0.60 / qpmin=0 / qpmax=69 / qpstep=4 / vbv_maxrate=50000 / vbv_bufsize=50000 / crf_max=0.0 / nal_hrd=none / filler=0 / ip_ratio=1.40 / aq=2:1.00
Language : English
Default : Yes
Forced : No
Color range : Limited
Color primaries : BT.709
Transfer characteristics : BT.709
Matrix coefficients : BT.709

Audio #1
ID : 2
Format : AC-3
Format/Info : Audio Coding 3
Mode extension : CM (complete main)
Format settings, Endianness : Big
Codec ID : A_AC3
Duration : 1h 32mn
Bit rate mode : Constant
Bit rate : 384 Kbps
Channel(s) : 6 channels
Channel positions : Front: L C R, Side: L R, LFE
Sampling rate : 48.0 KHz
Frame rate : 31.250 fps (1536 spf)
Compression mode : Lossy
Stream size : 255 MiB (2%)
Title : DUB [iTunes]
Language : Russian
Default : Yes
Forced : No

Audio #2
ID : 3
Format : DTS
Format/Info : Digital Theater Systems
Mode : 16
Format settings, Endianness : Big
Codec ID : A_DTS
Duration : 1h 32mn
Bit rate mode : Constant
Bit rate : 1 509 Kbps
Channel(s) : 6 channels
Channel positions : Front: L C R, Side: L R, LFE
Sampling rate : 48.0 KHz
Frame rate : 93.750 fps (512 spf)
Bit depth : 16 bits
Compression mode : Lossy
Stream size : 1 001 MiB (9%)
Title : Original
Language : English
Default : No
Forced : No

Text
ID : 4
Format : UTF-8
Codec ID : S_TEXT/UTF8
Codec ID/Info : UTF-8 Plain Text
Duration : 1h 24mn
Bit rate : 35 bps
Count of elements : 790
Stream size : 22.1 KiB (0%)
Language : English
Default : No
Forced : No

Menu
00:00:00.000 : en:Chapter 1
00:09:31.583 : en:Chapter 2
00:15:51.333 : en:Chapter 3
00:22:25.708 : en:Chapter 4
00:29:54.333 : en:Chapter 5
00:36:30.208 : en:Chapter 6
00:43:29.791 : en:Chapter 7
00:50:36.708 : en:Chapter 8
00:57:26.500 : en:Chapter 9
01:04:12.333 : en:Chapter 10
01:14:01.833 : en:Chapter 11
01:21:59.625 : en:Chapter 12
Свернуть

Скриншоты
Изображение
Изображение
Изображение
Свернуть
Изображение


Изображение Изображение
Не в сети
Профиль  
Начать новую темуОтветить на тему  [ 1 сообщение ] 
Вы не можете начинать темы
Вы не можете отвечать на сообщения
Вы не можете редактировать свои сообщения
Вы не можете удалять свои сообщения