Начать новую темуОтветить на тему  [ Сообщений: 3 ] 
Торрент файл
Размер: 9.06 GB • Зарегистрирован: 10 месяцев • Статус: * Не проверено
Скачан: 124 раза • Желающих скачать: 0 • Поблагодарили: 32 раза
 Раздают: 1  |  0 KB/s  ]   Качают: 0  |  0 KB/s  ] 
Сообщения
 Добавлено: 2016-01-28 21:56
DVD Release Group
Аватара пользователя
Стаж: 7 лет 1 месяц
Сообщений: 3542
Спасибок: 246670
Лайков: 1016
Багровый пик

Crimson Peak


Изображение


Год выпуска: 2015
Страна: США, Канада
Жанр: Ужасы, фэнтези, триллер, драма, мелодрама, детектив
Продолжительность: 01:58:44
Перевод: Профессиональный (полное дублирование)
Режиссер: Гильермо дель Торо
В ролях: Миа Васиковска, Джессика Честейн, Том Хиддлстон, Чарли Ханнэм, Джим Бивер, Берн Горман, Лесли Хоуп, Даг Джонс, Джонатан Хайд, Брюс Грэй
Описание: Дурная слава преследует дом, что возвышается над городом. С приходом зимы он утопает в кровавых снегах. Говорят, дело в глине, проступающей на поверхность. Но ни единая душа не рискует ступить на ледяной склон… кроме нее. Она влюблена в таинственного незнакомца, живущего в древних стенах со своей сестрой. Багровый пик пробудился и уже не уснет.
Изображение
Sample:
http://sendfile.su/1198191
Качество: BDRip 1080p
Формат: MKV
Видео кодек: H.264
Аудио кодек: AC3, DTS
Видео: 1920x1040 23.98fps 9036kbps
Аудио:
Аудио Rus: AC3 48kHz 6ch 384kbps
Аудио Eng: DTS 48kHz 6ch 1510kbps
"MediaInfo"
Формат : Matroska
Версия формата : Version 4 / Version 2
Размер файла : 9,06 Гбайт
Продолжительность : 1 ч. 58 м.
Общий поток : 10,9 Мбит/сек
Дата кодирования : UTC 2016-01-28 03:10:24
Программа кодирования : mkvmerge v8.3.0 ('Over the Horizon') 64bit
Библиотека кодирования : libebml v1.3.1 + libmatroska v1.4.2
DURATION : 01:58:43.745000000
NUMBER_OF_FRAMES : 667851
NUMBER_OF_BYTES : 1343716212
_STATISTICS_WRITING_APP : mkvmerge v8.3.0 ('Over the Horizon') 64bit
_STATISTICS_WRITING_DATE_UTC : 2016-01-28 03:10:24
_STATISTICS_TAGS : BPS DURATION NUMBER_OF_FRAMES NUMBER_OF_BYTES

Видео
Идентификатор : 1
Формат : AVC
Формат/Информация : Advanced Video Codec
Профиль формата : High@L4.1
Параметр CABAC формата : Да
Параметр ReFrames формата : 4 кадра
Идентификатор кодека : V_MPEG4/ISO/AVC
Продолжительность : 1 ч. 58 м.
Битрейт : 9036 Кбит/сек
Ширина : 1920 пикселей
Высота : 1040 пикселей
Соотношение сторон : 1,85:1
Режим частоты кадров : Постоянный
Частота кадров : 23,976 кадра/сек
Цветовое пространство : YUV
Субдискретизация насыщенности : 4:2:0
Битовая глубина : 8 бит
Тип развёртки : Прогрессивная
Бит/(Пиксели*Кадры) : 0.189
Размер потока : 7,31 Гбайт (81%)
Библиотека кодирования : x264 core 148 r2638 7599210
Настройки программы : cabac=1 / ref=4 / deblock=1:0:0 / analyse=0x3:0x133 / me=umh / subme=7 / psy=1 / psy_rd=1.00:0.00 / mixed_ref=1 / me_range=16 / chroma_me=1 / trellis=1 / 8x8dct=1 / cqm=0 / deadzone=21,11 / fast_pskip=0 / chroma_qp_offset=-2 / threads=24 / lookahead_threads=4 / sliced_threads=0 / nr=0 / decimate=1 / interlaced=0 / bluray_compat=0 / constrained_intra=0 / bframes=3 / b_pyramid=2 / b_adapt=1 / b_bias=0 / direct=1 / weightb=1 / open_gop=0 / weightp=2 / keyint=250 / keyint_min=23 / scenecut=40 / intra_refresh=0 / rc_lookahead=40 / rc=2pass / mbtree=1 / bitrate=9036 / ratetol=1.0 / qcomp=0.60 / qpmin=0 / qpmax=69 / qpstep=4 / cplxblur=20.0 / qblur=0.5 / ip_ratio=1.40 / aq=1:1.00
Язык : English
Default : Да
Forced : Нет
DURATION : 01:58:43.712000000
NUMBER_OF_FRAMES : 170798
NUMBER_OF_BYTES : 8039841256
_STATISTICS_WRITING_APP : mkvmerge v8.3.0 ('Over the Horizon') 64bit
_STATISTICS_WRITING_DATE_UTC : 2016-01-28 03:10:24
_STATISTICS_TAGS : BPS DURATION NUMBER_OF_FRAMES NUMBER_OF_BYTES

Аудио #1
Идентификатор : 2
Формат : AC-3
Формат/Информация : Audio Coding 3
Расширение режима : CM (complete main)
Параметр Endianness формата : Big
Идентификатор кодека : A_AC3
Продолжительность : 1 ч. 58 м.
Вид битрейта : Постоянный
Битрейт : 384 Кбит/сек
Каналы : 6 каналов
Расположение каналов : Front: L C R, Side: L R, LFE
Частота : 48,0 КГц
Битовая глубина : 16 бит
Метод сжатия : С потерями
Задержка видео : 1 с. 30 мс.
Размер потока : 326 Мбайт (4%)
Язык : Russian
Default : Да
Forced : Нет

Аудио #2
Идентификатор : 3
Формат : DTS
Формат/Информация : Digital Theater Systems
Режим : 16
Параметр Endianness формата : Big
Идентификатор кодека : A_DTS
Продолжительность : 1 ч. 58 м.
Вид битрейта : Постоянный
Битрейт : 1509 Кбит/сек
Каналы : 6 каналов
Расположение каналов : Front: L C R, Side: L R, LFE
Частота : 48,0 КГц
Битовая глубина : 24 бит
Метод сжатия : С потерями
Размер потока : 1,25 Гбайт (14%)
Язык : English
Default : Нет
Forced : Нет

Меню
00:00:00.000 : en:00:00:00.000
00:06:02.529 : en:00:06:02.529
00:11:01.202 : en:00:11:01.202
00:15:29.720 : en:00:15:29.720
00:21:13.105 : en:00:21:13.105
00:25:52.926 : en:00:25:52.926
00:31:14.664 : en:00:31:14.664
00:39:26.823 : en:00:39:26.823
00:45:40.613 : en:00:45:40.613
00:51:57.031 : en:00:51:57.031
00:56:11.577 : en:00:56:11.577
01:02:05.096 : en:01:02:05.096
01:08:19.929 : en:01:08:19.929
01:14:24.835 : en:01:14:24.835
01:20:19.106 : en:01:20:19.106
01:25:54.149 : en:01:25:54.149
01:30:38.892 : en:01:30:38.892
01:36:09.639 : en:01:36:09.639
01:43:21.070 : en:01:43:21.070
01:51:24.136 : en:01:51:24.136
Свернуть

"Скриншоты"
Изображение
Изображение
Изображение
Свернуть
Не в сети
Профиль  
 Добавлено: 2016-02-01 14:47 (спустя 3 дня)
Аватара пользователя
Стаж: 8 лет 3 месяца
Возраст: 33
Сообщений: 319
Спасибок: 602
Лайков: 34
Хорошее кино, посмотрел на одном дыхании.
Сюжет не банален как о нём пишут, а вот наслаждение от картинки огромное.
Гильермо дель Торо всегда поднимает визуальную часть фильма на очень высокий уровень, даже выше сценария.
За что ему поклон :a_g_a:

7.5 из 10
 Ishtar нравится это.
Не в сети
Профиль  
 Добавлено: 2016-02-06 00:55 (спустя 4 дня)
Аватара пользователя
Стаж: 8 лет 3 месяца
Сообщений: 198
Лайков: 8
Сумасшедшая семейка, прямо чудная!!! Давно я не был под таким впечатлением от просмотра фильма, в напряжение держит до конца не позволяя делать паузу и отлучаться даже на минуту, всё самое вкусненькое осталось напоследок, все тайны раскрыты! Можно идти спать и переваривать весь сюжет во сне, ну и приснится же мне)))
 Ishtar нравится это.
Не в сети
Профиль  
Начать новую темуОтветить на тему  [ Сообщений: 3 ] 
Вы не можете начинать темы
Вы не можете отвечать на сообщения
Вы не можете редактировать свои сообщения
Вы не можете удалять свои сообщения