Начать новую темуОтветить на тему  [ Сообщений: 3 ] 
Торрент файл
Размер: 6.8 GB • Зарегистрирован: 6 месяцев • Статус: * Не проверено
Скачан: 58 раз • Желающих скачать: 0 • Поблагодарили: 9 раз
 Раздают: 0  |  0 KB/s  ]   Качают: 0  |  0 KB/s  ] 
 Полного источника не было 19 минут 
Сообщения
 Добавлено: 2016-05-12 08:45
RG-ELEKTRO
Аватара пользователя
Стаж: 2 года 3 месяца
Сообщений: 7928
Спасибок: 53759
Лайков: 3304
Бешеные / Enragés

Изображение

Изображение

Год выпуска: 2015
Страна: Франция, Канада
Жанр: боевик, триллер, драма
Продолжительность: 01:29:48
Перевод: Профессиональный (многоголосый закадровый) [iTunes]

Режиссёр: Эрик Ханнецо
В ролях: Ламбер Вильсон, Гийом Гуи, Виржини Ледуайен, Франк Гастамбид, Франсуа Арно, Лоран Люка, Александр Гойетт, Пьер Лебо, Дэйв Лапоммерей
Описание: После ограбления банка трое отчаянных преступников берут в заложники молодую женщину и отца с ребёнком. Это станет началом жестокой поездки, которую не все из них переживут.

Изображение Изображение
Качество: BDRip 1080p
Формат: MKV
Видео кодек: MPEG-4 AVC
Аудио кодек: AC3 / DTS
Видео: MPEG-4 AVC, 8943 kb/s, 1920x800
Аудио #1: AC3, 384 kb/s (6 ch) [Профессиональный (многоголосый закадровый)]
Аудио #2: French: DTS, 1510 kb/s (6 ch)

"MI"
Общее
Уникальный идентификатор : 173830964325154308606455430308265140662 (0x82C6A03DF7BCA45AB2513564494F21B6)
Полное имя : D:\фильмы\6eweHye.2015.P.BDRip.1080p.mkv
Формат : Matroska
Версия формата : Version 4 / Version 2
Размер файла : 6,80 Гбайт
Продолжительность : 1 ч. 29 м.
Общий поток : 10,8 Мбит/сек
Дата кодирования : UTC 2016-05-11 21:11:00
Программа кодирования : mkvmerge v8.3.0 ('Over the Horizon') 64bit
Библиотека кодирования : libebml v1.3.1 + libmatroska v1.4.2

Видео
Идентификатор : 1
Формат : AVC
Формат/Информация : Advanced Video Codec
Профиль формата : High@L4.1
Параметр CABAC формата : Да
Параметр ReFrames формата : 5 кадров
Идентификатор кодека : V_MPEG4/ISO/AVC
Продолжительность : 1 ч. 29 м.
Битрейт : 8943 Кбит/сек
Ширина : 1920 пикселей
Высота : 800 пикселей
Соотношение сторон : 2,40:1
Режим частоты кадров : Постоянный
Частота кадров : 25,000 кадров/сек
Цветовое пространство : YUV
Субдискретизация насыщенности : 4:2:0
Битовая глубина : 8 бит
Тип развёртки : Прогрессивная
Бит/(Пиксели*Кадры) : 0.233
Размер потока : 5,47 Гбайт (81%)
Библиотека кодирования : x264 core 148 r2665 a01e339
Настройки программы : cabac=1 / ref=5 / deblock=1:0:0 / analyse=0x3:0x113 / me=umh / subme=8 / psy=1 / psy_rd=1.00:0.00 / mixed_ref=1 / me_range=16 / chroma_me=1 / trellis=1 / 8x8dct=1 / cqm=0 / deadzone=21,11 / fast_pskip=1 / chroma_qp_offset=-2 / threads=18 / lookahead_threads=3 / sliced_threads=0 / nr=0 / decimate=1 / interlaced=0 / bluray_compat=0 / constrained_intra=0 / bframes=3 / b_pyramid=2 / b_adapt=2 / b_bias=0 / direct=3 / weightb=1 / open_gop=0 / weightp=2 / keyint=240 / keyint_min=24 / scenecut=40 / intra_refresh=0 / rc_lookahead=50 / rc=2pass / mbtree=1 / bitrate=8943 / ratetol=1.0 / qcomp=0.60 / qpmin=0 / qpmax=69 / qpstep=4 / cplxblur=20.0 / qblur=0.5 / ip_ratio=1.40 / aq=1:1.00
Язык : English
Default : Да
Forced : Нет

Аудио #1
Идентификатор : 2
Формат : AC-3
Формат/Информация : Audio Coding 3
Расширение режима : CM (complete main)
Параметр Endianness формата : Big
Идентификатор кодека : A_AC3
Продолжительность : 1 ч. 29 м.
Вид битрейта : Постоянный
Битрейт : 384 Кбит/сек
Каналы : 6 каналов
Расположение каналов : Front: L C R, Side: L R, LFE
Частота : 48,0 КГц
Частота кадров : 31,250 кадров/сек (1536 spf)
Метод сжатия : С потерями
Размер потока : 247 Мбайт (4%)
Язык : Russian
Default : Да
Forced : Нет

Аудио #2
Идентификатор : 3
Формат : DTS
Формат/Информация : Digital Theater Systems
Режим : 16
Параметр Endianness формата : Big
Идентификатор кодека : A_DTS
Продолжительность : 1 ч. 29 м.
Вид битрейта : Постоянный
Битрейт : 1509 Кбит/сек
Каналы : 6 каналов
Расположение каналов : Front: L C R, Side: L R, LFE
Частота : 48,0 КГц
Частота кадров : 93,750 кадра/сек (512 spf)
Битовая глубина : 24 бит
Метод сжатия : С потерями
Размер потока : 969 Мбайт (14%)
Заголовок : French DTS 1509kbps
Язык : French
Default : Нет
Forced : Нет

Меню
00:00:00.000 : en:00:00:00.000
00:09:13.600 : en:00:09:13.600
00:16:36.960 : en:00:16:36.960
00:24:42.440 : en:00:24:42.440
00:32:37.360 : en:00:32:37.360
00:40:00.720 : en:00:40:00.720
00:47:57.320 : en:00:47:57.320
00:56:53.960 : en:00:56:53.960
01:03:44.760 : en:01:03:44.760
01:12:55.760 : en:01:12:55.760
01:17:34.160 : en:01:17:34.160
01:26:31.480 : en:01:26:31.480

Свернуть

Скриншоты
Изображение
Изображение
Изображение
Свернуть

Изображение


Изображение Изображение
_________________
Не ищите меня в "ВКонтакте", в "Одноклассниках" меня нет - я на трекерах сижу!
 slavchik нравится это.
Не в сети
Профиль  
 Добавлено: 2016-05-12 18:43 (спустя 9 часов)
Стаж: 4 года 8 месяцев
Возраст: 30
Сообщений: 4
Кто смотрел? Как фильм?
Не в сети
Профиль  
 Добавлено: 2016-06-01 23:56 (спустя 20 дней)
Стаж: 8 месяцев
Сообщений: 3
Лайков: 1
Сильнааа концовка.я под впечетлением.улыбнулся в конце фильма вместе с героем в один момонт.непожалел потраченова времени на просмотор :co_ol:
 Оля 88 нравится это.
Не в сети
Профиль  
Начать новую темуОтветить на тему  [ Сообщений: 3 ] 
Вы не можете начинать темы
Вы не можете отвечать на сообщения
Вы не можете редактировать свои сообщения
Вы не можете удалять свои сообщения