Начать новую темуОтветить на тему  [ Сообщений: 2 ] 
Торрент файл
Размер: 5 GB • Зарегистрирован: 8 месяцев • Статус: * Не проверено
Скачан: 73 раза • Желающих скачать: 0 • Поблагодарили: 9 раз
 Раздают: 1  |  10 KB/s  ]   Качают: 0  |  0 KB/s  ] 
Сообщения
 Добавлено: 2016-03-31 09:22
RG-ELEKTRO
Аватара пользователя
Стаж: 2 года 3 месяца
Сообщений: 7928
Спасибок: 53739
Лайков: 3304
Чемпионы: Быстрее. Выше. Сильнее

Изображение

Изображение


Год выпуска: 2016
Страна: Россия
Жанр: спорт, драма
Продолжительность: 01:43:45

Режиссёр: Артем Аксененко
В ролях: Сергей Бондарчук, Евгений Пронин, Кристина Асмус, Егор Корешков, Александр Робак, Дарья Екамасова, Сергей Сосновский, Виктор Хориняк, Джемал Тетруашвили, Кристина Шаповалова
Описание: В мире их называли «Асфальтоукладчик», «Королева брусьев» и «Русская торпеда». Борец Александр Карелин, гимнастка Светлана Хоркина и пловец Александр Попов — реальные истории трех легендарных российских спортсменов, на общем счету которых 9 золотых олимпийских медалей и больше тысячи побед! У каждого был свой путь, своя уникальная драматическая история восхождения. Три яркие новеллы, основанные на реальных событиях, расскажут о том, что осталось за кадром спортивной хроники и каким был путь к высшему спортивному достижению — Олимпийский чемпион. Они стали легендами мирового спорта и дали возможность всей стране сказать «Мы победили!».

Изображение
Качество: BDRip 720p
Формат: MKV
Видео кодек: MPEG-4 AVC
Аудио кодек: DTS
Видео: MPEG-4 AVC, 1280x544 (2.35:1), 5384 Кбит/с, 24 кадр/с, 0.314 bit/pixel
Аудио #1: DTS, 48000 Гц, 1510 Кбит/с, 6 каналов

"MI"
Общее
Уникальный идентификатор : 252143754356061034182603090026655252264 (0xBDB11EE4EA12B4D49FF9E6C825B5FF28)
Полное имя : D:\фильмы\4emp10HY.2O16.O.BDRip.72OP.mkv
Формат : Matroska
Версия формата : Version 2
Размер файла : 5,00 Гбайт
Продолжительность : 1 ч. 43 м.
Общий поток : 6899 Кбит/сек
Дата кодирования : UTC 2016-03-30 20:44:28
Программа кодирования : mkvmerge v8.3.0 ('Over the Horizon') 64bit
Библиотека кодирования : libebml v1.3.1 + libmatroska v1.4.2

Видео
Идентификатор : 1
Формат : AVC
Формат/Информация : Advanced Video Codec
Профиль формата : High@L4.1
Параметр CABAC формата : Да
Параметр ReFrames формата : 4 кадра
Идентификатор кодека : V_MPEG4/ISO/AVC
Продолжительность : 1 ч. 43 м.
Битрейт : 5384 Кбит/сек
Ширина : 1280 пикселей
Высота : 544 пикселя
Соотношение сторон : 2,35:1
Режим частоты кадров : Постоянный
Частота кадров : 24,000 кадра/сек
Цветовое пространство : YUV
Субдискретизация насыщенности : 4:2:0
Битовая глубина : 8 бит
Тип развёртки : Прогрессивная
Бит/(Пиксели*Кадры) : 0.322
Размер потока : 3,90 Гбайт (78%)
Язык : Russian
Default : Да
Forced : Нет

Аудио
Идентификатор : 2
Формат : DTS
Формат/Информация : Digital Theater Systems
Режим : 16
Параметр Endianness формата : Big
Идентификатор кодека : A_DTS
Продолжительность : 1 ч. 43 м.
Вид битрейта : Постоянный
Битрейт : 1509 Кбит/сек
Каналы : 6 каналов
Расположение каналов : Front: L C R, Side: L R, LFE
Частота : 48,0 КГц
Частота кадров : 93,750 кадра/сек (512 spf)
Битовая глубина : 24 бит
Метод сжатия : С потерями
Размер потока : 1,09 Гбайт (22%)
Язык : Russian
Default : Да
Forced : Нет

Текст
Идентификатор : 3
Формат : PGS
Режим смешивания : zlib
Идентификатор кодека : S_HDMV/PGS
Идентификатор кодека/Информация : Picture based subtitle format used on BDs/HD-DVDs
Продолжительность : 1 ч. 37 м.
Битрейт : 3803 бит/сек
Count of elements : 1621
Размер потока : 2,66 Мбайт (0%)
Язык : Russian
Default : Нет
Forced : Нет

Меню
00:00:00.000 : ru:
00:01:07.208 : ru:
00:14:04.333 : ru:
00:27:26.333 : ru:
00:40:01.250 : ru:
00:49:56.958 : ru:
01:00:13.250 : ru:
01:14:04.666 : ru:
01:27:28.541 : ru:


Свернуть

Скриншоты
Изображение
Изображение
Изображение
Свернуть
Изображение


Изображение Изображение
_________________
Не ищите меня в "ВКонтакте", в "Одноклассниках" меня нет - я на трекерах сижу!
Не в сети
Профиль  
 Добавлено: 2016-04-05 11:15 (спустя 5 дней)
Аватара пользователя
Стаж: 8 лет 3 месяца
Возраст: 33
Сообщений: 319
Спасибок: 602
Лайков: 34
Для Российского фильма необычайно высокий рейтинг :bra_vo:


Посмотрел, вполне достойное кино :co_ol:
Не в сети
Профиль  
Начать новую темуОтветить на тему  [ Сообщений: 2 ] 
Вы не можете начинать темы
Вы не можете отвечать на сообщения
Вы не можете редактировать свои сообщения
Вы не можете удалять свои сообщения