Начать новую темуОтветить на тему  [ Сообщений: 2 ] 
Торрент файл
Размер: 3.64 GB • Зарегистрирован: 8 месяцев • Статус: * Не проверено
Скачан: 681 раз • Желающих скачать: 0 • Поблагодарили: 72 раза
 Раздают: 12  |  6 KB/s  ]   Качают: 0  |  0 KB/s  ] 
Сообщения
 Добавлено: 2016-03-24 22:36
DVD Release Group
Аватара пользователя
Стаж: 7 лет 1 месяц
Сообщений: 3542
Спасибок: 246670
Лайков: 1016
День выборов 2


Изображение


Год выпуска: 2016
Страна: Россия
Жанр: Комедия
Продолжительность: 01:44:06
Перевод: Не требуется
Режиссер: Александр Баршак
В ролях: Леонид Барац, Ростислав Хаит, Александр Демидов, Камиль Ларин, Василий Уткин, Нонна Гришаева, Максим Виторган, Михаил Ефремов, Алексей Макаров, Алексей Кортнев
Описание: Игорь Цаплин будет избираться на третий срок, а поможет ему в этом уже знакомая зрителю команда пиарщиков.
Изображение
Качество: WEB-DL 1080p
Формат: MKV
Видео кодек: H.264
Аудио кодек: AC3
Видео: 1920x806 23.98fps 4525kbps
Аудио: 48kHz 6ch 384kbps
"MediaInfo"
Формат : Matroska
Версия формата : Version 2
Размер файла : 3,64 Гбайт
Продолжительность : 1 ч. 44 м.
Общий поток : 5008 Кбит/сек
Дата кодирования : UTC 2016-03-24 18:55:03
Программа кодирования : mkvmerge v8.3.0 ('Over the Horizon') 64bit
Библиотека кодирования : libebml v1.3.1 + libmatroska v1.4.2
DURATION : 01:44:06.912000000
NUMBER_OF_FRAMES : 195216
NUMBER_OF_BYTES : 299851776
_STATISTICS_WRITING_APP : mkvmerge v8.3.0 ('Over the Horizon') 64bit
_STATISTICS_WRITING_DATE_UTC : 2016-03-24 18:55:03
_STATISTICS_TAGS : BPS DURATION NUMBER_OF_FRAMES NUMBER_OF_BYTES

Видео
Идентификатор : 1
Формат : AVC
Формат/Информация : Advanced Video Codec
Профиль формата : High@L4.0
Параметр CABAC формата : Да
Параметр ReFrames формата : 5 кадров
Идентификатор кодека : V_MPEG4/ISO/AVC
Продолжительность : 1 ч. 44 м.
Битрейт : 4525 Кбит/сек
Ширина : 1920 пикселей
Высота : 806 пикселей
Соотношение сторон : 2,40:1
Режим частоты кадров : Постоянный
Частота кадров : 25,000 кадров/сек
Цветовое пространство : YUV
Субдискретизация насыщенности : 4:2:0
Битовая глубина : 8 бит
Тип развёртки : Прогрессивная
Бит/(Пиксели*Кадры) : 0.117
Размер потока : 3,29 Гбайт (90%)
Язык : English
Default : Да
Forced : Нет
Основные цвета : BT.709
Характеристики трансфера : BT.709
Коэффициенты матрицы : BT.709

Аудио
Идентификатор : 2
Формат : AC-3
Формат/Информация : Audio Coding 3
Расширение режима : CM (complete main)
Параметр Endianness формата : Big
Идентификатор кодека : A_AC3
Продолжительность : 1 ч. 44 м.
Вид битрейта : Постоянный
Битрейт : 384 Кбит/сек
Каналы : 6 каналов
Расположение каналов : Front: L C R, Side: L R, LFE
Частота : 48,0 КГц
Битовая глубина : 16 бит
Метод сжатия : С потерями
Размер потока : 286 Мбайт (8%)
Язык : Russian
Default : Да
Forced : Нет

Меню
00:00:00.000 : en:Глава 1
00:05:12.680 : en:Глава 2
00:10:56.200 : en:Глава 3
00:16:56.600 : en:Глава 4
00:22:04.160 : en:Глава 5
00:27:38.400 : en:Глава 6
00:33:47.280 : en:Глава 7
00:39:29.440 : en:Глава 8
00:44:56.680 : en:Глава 9
00:50:17.760 : en:Глава 10
00:56:33.760 : en:Глава 11
01:01:49.280 : en:Глава 12
01:07:03.800 : en:Глава 13
01:13:17.680 : en:Глава 14
01:18:54.640 : en:Глава 15
01:25:07.960 : en:Глава 16
01:31:30.600 : en:Глава 17
01:38:11.640 : en:Глава 18
Свернуть

"Скриншоты"
Изображение
Изображение
Изображение
Свернуть
Не в сети
Профиль  
 Добавлено: 2016-04-05 22:20 (спустя 11 дней)
Стаж: 4 года 3 месяца
Сообщений: 2
СПАСИБО! :)
Не в сети
Профиль  
Начать новую темуОтветить на тему  [ Сообщений: 2 ] 
Вы не можете начинать темы
Вы не можете отвечать на сообщения
Вы не можете редактировать свои сообщения
Вы не можете удалять свои сообщения