Начать новую темуОтветить на тему  [ Сообщений: 3 ] 
Торрент файл
Размер: 4.63 GB • Зарегистрирован: 5 месяцев 24 дня • Статус: * Не проверено
Скачан: 309 раз • Желающих скачать: 0 • Поблагодарили: 47 раз
 Раздают: 1  |  0 KB/s  ]   Качают: 0  |  0 KB/s  ] 
Сообщения
 Добавлено: 2016-06-16 21:25
DVD Release Group
Аватара пользователя
Стаж: 7 лет 1 месяц
Сообщений: 3569
Спасибок: 247804
Лайков: 1020
Дивергент, глава 3: За стеной

Allegiant


Изображение


Год выпуска: 2016
Страна: Китай, США
Жанр: Фантастика, боевик, приключения
Продолжительность: 02:00:20
Перевод: Профессиональный (полное дублирование)
Режиссер: Роберт Швентке
В ролях: Шейлин Вудли, Тео Джеймс, Энсел Элгорт, Зои Кравиц, Майлз Теллер, Джефф Дэниелс, Наоми Уоттс, Мэгги Кью, Билл Скарсгард, Кейнан Лонсдейл
Описание: Трис и Фор впервые покидают город и своих близких и оказываются в опасном мире за стеной, отделяющей Чикаго, где им открывается шокирующая правда.Они должны быстро разобраться, кому можно доверять, так как битва, разгорающаяся за стенами города, угрожает всему человечеству. Чтобы выжить, Трис придется сделать непростой выбор между мужеством, верностью, любовью и необходимостью идти на жертвы.
Изображение
Sample:
http://sendfile.su/1243302
Качество: WEB-DL 1080p
Формат: MKV
Видео кодек: H.264
Аудио кодек: AC3
Видео: 1920x1080 24fps 5015kbps
Аудио: 48kHz 6ch 384kbps
"MediaInfo"
Формат : Matroska
Версия формата : Version 2
Размер файла : 4,63 Гбайт
Продолжительность : 2 ч. 0 м.
Общий поток : 5508 Кбит/сек
Дата кодирования : UTC 2016-06-15 22:09:21
Программа кодирования : mkvmerge v8.3.0 ('Over the Horizon') 64bit
Библиотека кодирования : libebml v1.3.1 + libmatroska v1.4.2
DURATION : 02:00:20.881000000
NUMBER_OF_FRAMES : 173301
NUMBER_OF_BYTES : 4623507084
_STATISTICS_WRITING_APP : mkvmerge v8.3.0 ('Over the Horizon') 64bit
_STATISTICS_WRITING_DATE_UTC : 2016-06-15 22:09:21
_STATISTICS_TAGS : BPS DURATION NUMBER_OF_FRAMES NUMBER_OF_BYTES

Видео
Идентификатор : 1
Формат : AVC
Формат/Информация : Advanced Video Codec
Профиль формата : High@L4.1
Параметр CABAC формата : Да
Параметр ReFrames формата : 4 кадра
Идентификатор кодека : V_MPEG4/ISO/AVC
Продолжительность : 2 ч. 0 м.
Битрейт : 5015 Кбит/сек
Ширина : 1920 пикселей
Высота : 1080 пикселей
Соотношение сторон : 16:9
Режим частоты кадров : Постоянный
Частота кадров : 24,000 кадра/сек
Цветовое пространство : YUV
Субдискретизация насыщенности : 4:2:0
Битовая глубина : 8 бит
Тип развёртки : Прогрессивная
Бит/(Пиксели*Кадры) : 0.101
Размер потока : 4,22 Гбайт (91%)
Язык : Russian
Default : Да
Forced : Нет

Аудио
Идентификатор : 2
Формат : AC-3
Формат/Информация : Audio Coding 3
Расширение режима : CM (complete main)
Параметр Endianness формата : Big
Идентификатор кодека : A_AC3
Продолжительность : 2 ч. 0 м.
Вид битрейта : Постоянный
Битрейт : 384 Кбит/сек
Каналы : 6 каналов
Расположение каналов : Front: L C R, Side: L R, LFE
Частота : 48,0 КГц
Битовая глубина : 16 бит
Метод сжатия : С потерями
Размер потока : 331 Мбайт (7%)
Язык : Russian
Default : Да
Forced : Нет
Свернуть

"Скриншоты"
Изображение
Изображение
Изображение
Свернуть


Последний раз редактировалось rastor 2016-06-16 21:34, всего редактировалось 1 раз.
Не в сети
Профиль  
 Добавлено: 2016-06-16 21:30 (спустя 4 минуты)
Аватара пользователя
Стаж: 8 лет 11 месяцев
Сообщений: 518
Спасибок: 39
Лайков: 49
Ну прям самый первый припервый нах!
Не в сети
Профиль  
 Добавлено: 2016-06-19 00:48 (спустя 2 дня 3 часа)
Аватара пользователя
Стаж: 6 лет 6 месяцев
Сообщений: 19963
Спасибок: 721
Лайков: 461
Вот прям самый второй прифтарой, нах!
Cкрытый текст
:hi_hi_hi:
Свернуть
_________________
It was I'am ... :jn_pu_sk:
Медали и Ордена
ИзображениеИзображение
Свернуть
Не в сети
Профиль  
Начать новую темуОтветить на тему  [ Сообщений: 3 ] 
Вы не можете начинать темы
Вы не можете отвечать на сообщения
Вы не можете редактировать свои сообщения
Вы не можете удалять свои сообщения