Начать новую темуОтветить на тему  [ 1 сообщение ] 
Торрент файл
Размер: 24.68 GB • Зарегистрирован: 7 месяцев • Статус: * Не проверено
Скачан: 14 раз • Желающих скачать: 0 • Поблагодарили: 2 раза
 Раздают: 1  |  0 KB/s  ]   Качают: 0  |  0 KB/s  ] 
Сообщения
 Добавлено: 2016-04-20 11:37
RG-ELEKTRO
Аватара пользователя
Стаж: 2 года 3 месяца
Сообщений: 7928
Спасибок: 53776
Лайков: 3304
Джой / Joy

Изображение

Изображение


Год выпуска: 2015
Страна: США
Жанр: драма, комедия, биография, история
Продолжительность: 02:04:19
Перевод: Дублированный [iTunes]

Режиссёр: Дэвид О. Расселл
В ролях: Дженнифер Лоуренс, Роберт Де Ниро, Брэдли Купер, Эдгар Рамирес, Дайан Лэдд, Вирджиния Мэдсен, Изабелла Росселлини, Даша Поланко, Сьюзэн Луччи, Лаура Райт
Описание: История, основанная на непростой жизни матери-одиночки в Лонг-Айленде, которая стала одним из самых успешных предпринимателей страны.

Изображение Изображение
Качество: BDRemux 1080p
Формат: MKV
Видео кодек: MPEG-4 AVC
Аудио кодек: AC3 / DTS-HD MA
Видео: MPEG-4 AVC, 1920x1080, 24855 Kbit/s, 23.976 fps
Аудио #1: 48.0 Khz, AC3, 5.1, 384 Kbps [Дублированный, iTunes]
Аудио #2: 48.0 Khz, DTS-HD MA, 3250 Kbps | Оригинал | ENG
Субтитры: Русские, английские

"MI"
Общее
Уникальный идентификатор : 239352870103018536404700941658643759384 (0xB411AF9C6D6C2320AEE3A183FE8C0118)
Полное имя : F:VideoJoy.2015.BDREMUX.1080p.ExKinoRay.mkv
Формат : Matroska
Версия формата : Version 4 / Version 2
Размер файла : 24,7 Гбайт
Продолжительность : 2 ч. 4 м.
Режим общего битрейта : Переменный
Общий поток : 28,5 Мбит/сек
Название фильма : Joy.2015.BDREMUX.1080p.ExKinoRay
Дата кодирования : UTC 2016-04-20 03:55:45
Программа кодирования : mkvmerge v8.3.0 ('Over the Horizon') 64bit
Библиотека кодирования : libebml v1.3.1 + libmatroska v1.4.2

Видео
Идентификатор : 1
Формат : AVC
Формат/Информация : Advanced Video Codec
Профиль формата : High@L4.1
Параметр CABAC формата : Да
Параметр ReFrames формата : 2 кадра
Идентификатор кодека : V_MPEG4/ISO/AVC
Продолжительность : 2 ч. 4 м.
Вид битрейта : Переменный
Битрейт : 24,9 Мбит/сек
Ширина : 1920 пикселей
Высота : 1080 пикселей
Соотношение сторон : 16:9
Режим частоты кадров : Постоянный
Частота кадров : 23,976 (24000/1001) кадра/сек
Цветовое пространство : YUV
Субдискретизация насыщенности : 4:2:0
Битовая глубина : 8 бит
Тип развёртки : Прогрессивная
Бит/(Пиксели*Кадры) : 0.500
Размер потока : 21,5 Гбайт (87%)
Заголовок : Joy.2015.BDREMUX.1080p.ExKinoRay
Язык : English
Default : Нет
Forced : Нет

Аудио #1
Идентификатор : 2
Формат : AC-3
Формат/Информация : Audio Coding 3
Расширение режима : CM (complete main)
Параметр Endianness формата : Big
Идентификатор кодека : A_AC3
Продолжительность : 2 ч. 4 м.
Вид битрейта : Постоянный
Битрейт : 384 Кбит/сек
Каналы : 6 каналов
Расположение каналов : Front: L C R, Side: L R, LFE
Частота : 48,0 КГц
Частота кадров : 31,250 кадров/сек (1536 spf)
Метод сжатия : С потерями
Размер потока : 341 Мбайт (1%)
Заголовок : DUB [iTunes]
Язык : Russian
Default : Да
Forced : Нет

Аудио #2
Идентификатор : 3
Формат : DTS
Формат/Информация : Digital Theater Systems
Профиль формата : MA / Core
Режим : 16
Параметр Endianness формата : Big
Идентификатор кодека : A_DTS
Продолжительность : 2 ч. 4 м.
Вид битрейта : Переменный / Постоянный
Битрейт : 3250 Кбит/сек / 1509 Кбит/сек
Каналы : 6 каналов
Расположение каналов : Front: L C R, Side: L R, LFE
Частота : 48,0 КГц
Частота кадров : 93,750 кадра/сек (512 spf)
Битовая глубина : 24 бит
Метод сжатия : Без потерь / Lossy
Размер потока : 2,82 Гбайт (11%)
Язык : English
Default : Нет
Forced : Нет

Текст #1
Идентификатор : 4
Формат : UTF-8
Идентификатор кодека : S_TEXT/UTF8
Идентификатор кодека/Информация : UTF-8 Plain Text
Продолжительность : 2 ч. 3 м.
Битрейт : 114 бит/сек
Count of elements : 1991
Размер потока : 103 Кбайт (0%)
Язык : Russian
Default : Нет
Forced : Нет

Текст #2
Идентификатор : 5
Формат : UTF-8
Идентификатор кодека : S_TEXT/UTF8
Идентификатор кодека/Информация : UTF-8 Plain Text
Продолжительность : 1 ч. 55 м.
Битрейт : 85 бит/сек
Count of elements : 2008
Размер потока : 71,9 Кбайт (0%)
Язык : English
Default : Нет
Forced : Нет

Меню
00:00:00.000 : en:00:00:00.000
00:06:14.082 : en:00:06:14.082
00:09:54.093 : en:00:09:54.093
00:13:43.031 : en:00:13:43.031
00:19:26.749 : en:00:19:26.749
00:22:54.832 : en:00:22:54.832
00:28:09.313 : en:00:28:09.313
00:32:45.672 : en:00:32:45.672
00:36:53.628 : en:00:36:53.628
00:44:02.807 : en:00:44:02.807
00:48:17.019 : en:00:48:17.019
00:53:25.828 : en:00:53:25.828
00:56:57.914 : en:00:56:57.914
01:01:13.128 : en:01:01:13.128
01:06:48.671 : en:01:06:48.671
01:12:52.493 : en:01:12:52.493
01:16:56.445 : en:01:16:56.445
01:20:53.766 : en:01:20:53.766
01:26:14.211 : en:01:26:14.211
01:30:24.836 : en:01:30:24.836
01:35:51.079 : en:01:35:51.079
01:41:28.708 : en:01:41:28.708
01:47:24.355 : en:01:47:24.355
01:53:58.623 : en:01:53:58.623
Свернуть

Скриншоты
Изображение
Изображение
Изображение
Свернуть
Изображение


Изображение Изображение
_________________
Не ищите меня в "ВКонтакте", в "Одноклассниках" меня нет - я на трекерах сижу!
Не в сети
Профиль  
Начать новую темуОтветить на тему  [ 1 сообщение ] 
Вы не можете начинать темы
Вы не можете отвечать на сообщения
Вы не можете редактировать свои сообщения
Вы не можете удалять свои сообщения