Начать новую темуОтветить на тему  [ 1 сообщение ] 
Торрент файл
Размер: 6.01 GB • Зарегистрирован: 7 месяцев • Статус: * Не проверено
Скачан: 43 раза • Желающих скачать: 0 • Поблагодарили: 4 раза
 Раздают: 0  |  0 KB/s  ]   Качают: 0  |  0 KB/s  ] 
 Полного источника не было 10 часов 
Сообщения
 Добавлено: 2016-04-21 11:41
RG-ELEKTRO
Аватара пользователя
Стаж: 2 года 3 месяца
Сообщений: 7928
Спасибок: 53752
Лайков: 3304
Джой / Joy

Изображение

Изображение


Год выпуска: 2015
Страна: США
Жанр: драма, комедия, биография, история
Продолжительность: 02:04:19
Перевод: Дублированный [iTunes]

Режиссёр: Дэвид О. Расселл
В ролях: Дженнифер Лоуренс, Роберт Де Ниро, Брэдли Купер, Эдгар Рамирес, Дайан Лэдд, Вирджиния Мэдсен, Изабелла Росселлини, Даша Поланко, Сьюзэн Луччи, Лаура Райт
Описание: История, основанная на непростой жизни матери-одиночки в Лонг-Айленде, которая стала одним из самых успешных предпринимателей страны.

Изображение Изображение
Качество: BDRip 720p
Формат: MKV
Видео кодек: MPEG-4 AVC
Аудио кодек: AC3 / DTS
Видео: MPEG-4 AVC, 1280x688, 5049 Kbit/s, 23.976 fps
Аудио #1: 48.0 Khz, AC3, 5.1, 384 Kbps [Дублированный, iTunes]
Аудио #2: 48.0 Khz, DTS, 5.1, 1510 Kbps | Оригинал | ENG
Субтитры: Русские, английские

"MI"
Общее
Уникальный идентификатор : 181178297582258533007185178831654631895 (0x884DABBD64EF58A8B39C8908998E39D7)
Полное имя : F:VideoJoy.2015.BDRip.720p.ExKinoRay.mkv
Формат : Matroska
Версия формата : Version 4 / Version 2
Размер файла : 6,01 Гбайт
Продолжительность : 2 ч. 4 м.
Общий поток : 6941 Кбит/сек
Название фильма : Joy.2015.BDRip.720p.ExKinoRay
Дата кодирования : UTC 2016-04-21 05:44:54
Программа кодирования : mkvmerge v8.3.0 ('Over the Horizon') 64bit
Библиотека кодирования : libebml v1.3.1 + libmatroska v1.4.2

Видео
Идентификатор : 1
Формат : AVC
Формат/Информация : Advanced Video Codec
Профиль формата : High@L4.1
Параметр CABAC формата : Да
Параметр ReFrames формата : 12 кадров
Идентификатор кодека : V_MPEG4/ISO/AVC
Продолжительность : 2 ч. 4 м.
Битрейт : 5049 Кбит/сек
Ширина : 1280 пикселей
Высота : 688 пикселей
Соотношение сторон : 1,85:1
Режим частоты кадров : Постоянный
Частота кадров : 23,976 (24000/1001) кадра/сек
Цветовое пространство : YUV
Субдискретизация насыщенности : 4:2:0
Битовая глубина : 8 бит
Тип развёртки : Прогрессивная
Бит/(Пиксели*Кадры) : 0.239
Размер потока : 4,37 Гбайт (73%)
Библиотека кодирования : x264 core 146 r2538 121396c
Настройки программы : cabac=1 / ref=12 / deblock=1:-2:-2 / analyse=0x3:0x133 / me=umh / subme=11 / psy=1 / psy_rd=1.00:0.00 / mixed_ref=1 / me_range=32 / chroma_me=1 / trellis=2 / 8x8dct=1 / cqm=0 / deadzone=21,11 / fast_pskip=0 / chroma_qp_offset=-2 / threads=6 / lookahead_threads=1 / sliced_threads=0 / nr=0 / decimate=0 / interlaced=0 / bluray_compat=0 / constrained_intra=0 / bframes=10 / b_pyramid=2 / b_adapt=2 / b_bias=0 / direct=3 / weightb=1 / open_gop=0 / weightp=2 / keyint=240 / keyint_min=23 / scenecut=40 / intra_refresh=0 / rc_lookahead=60 / rc=2pass / mbtree=1 / bitrate=5049 / ratetol=1.0 / qcomp=0.60 / qpmin=0 / qpmax=69 / qpstep=4 / cplxblur=20.0 / qblur=0.5 / vbv_maxrate=50000 / vbv_bufsize=62500 / nal_hrd=none / filler=0 / ip_ratio=1.40 / aq=1:0.80
Язык : English
Default : Да
Forced : Нет

Аудио #1
Идентификатор : 2
Формат : AC-3
Формат/Информация : Audio Coding 3
Расширение режима : CM (complete main)
Параметр Endianness формата : Big
Идентификатор кодека : A_AC3
Продолжительность : 2 ч. 4 м.
Вид битрейта : Постоянный
Битрейт : 384 Кбит/сек
Каналы : 6 каналов
Расположение каналов : Front: L C R, Side: L R, LFE
Частота : 48,0 КГц
Частота кадров : 31,250 кадров/сек (1536 spf)
Метод сжатия : С потерями
Размер потока : 341 Мбайт (6%)
Заголовок : DUB [iTunes]
Язык : Russian
Default : Да
Forced : Нет

Аудио #2
Идентификатор : 3
Формат : DTS
Формат/Информация : Digital Theater Systems
Режим : 16
Параметр Endianness формата : Big
Идентификатор кодека : A_DTS
Продолжительность : 2 ч. 4 м.
Вид битрейта : Постоянный
Битрейт : 1509 Кбит/сек
Каналы : 6 каналов
Расположение каналов : Front: L C R, Side: L R, LFE
Частота : 48,0 КГц
Частота кадров : 93,750 кадра/сек (512 spf)
Битовая глубина : 24 бит
Метод сжатия : С потерями
Размер потока : 1,31 Гбайт (22%)
Язык : English
Default : Нет
Forced : Нет

Текст #1
Идентификатор : 4
Формат : UTF-8
Идентификатор кодека : S_TEXT/UTF8
Идентификатор кодека/Информация : UTF-8 Plain Text
Продолжительность : 2 ч. 3 м.
Битрейт : 114 бит/сек
Count of elements : 1991
Размер потока : 103 Кбайт (0%)
Язык : Russian
Default : Нет
Forced : Нет

Текст #2
Идентификатор : 5
Формат : UTF-8
Идентификатор кодека : S_TEXT/UTF8
Идентификатор кодека/Информация : UTF-8 Plain Text
Продолжительность : 1 ч. 55 м.
Битрейт : 85 бит/сек
Count of elements : 2008
Размер потока : 71,9 Кбайт (0%)
Язык : English
Default : Нет
Forced : Нет

Меню
00:00:00.000 : en:00:00:00.000
00:06:14.082 : en:00:06:14.082
00:09:54.093 : en:00:09:54.093
00:13:43.031 : en:00:13:43.031
00:19:26.749 : en:00:19:26.749
00:22:54.832 : en:00:22:54.832
00:28:09.313 : en:00:28:09.313
00:32:45.672 : en:00:32:45.672
00:36:53.628 : en:00:36:53.628
00:44:02.807 : en:00:44:02.807
00:48:17.019 : en:00:48:17.019
00:53:25.828 : en:00:53:25.828
00:56:57.914 : en:00:56:57.914
01:01:13.128 : en:01:01:13.128
01:06:48.671 : en:01:06:48.671
01:12:52.493 : en:01:12:52.493
01:16:56.445 : en:01:16:56.445
01:20:53.766 : en:01:20:53.766
01:26:14.211 : en:01:26:14.211
01:30:24.836 : en:01:30:24.836
01:35:51.079 : en:01:35:51.079
01:41:28.708 : en:01:41:28.708
01:47:24.355 : en:01:47:24.355
01:53:58.623 : en:01:53:58.623
Свернуть

Скриншоты
Изображение
Изображение
Изображение
Свернуть
Изображение


Изображение Изображение
_________________
Не ищите меня в "ВКонтакте", в "Одноклассниках" меня нет - я на трекерах сижу!
Не в сети
Профиль  
Начать новую темуОтветить на тему  [ 1 сообщение ] 
Вы не можете начинать темы
Вы не можете отвечать на сообщения
Вы не можете редактировать свои сообщения
Вы не можете удалять свои сообщения