Начать новую темуОтветить на тему  [ 1 сообщение ] 
Торрент файл
Размер: 3.87 GB • Зарегистрирован: 6 месяцев • Статус: * Не проверено
Скачан: 13 раз • Желающих скачать: 0 • Поблагодарили: 3 раза
 Раздают: 0  |  0 KB/s  ]   Качают: 0  |  0 KB/s  ] 
 Полного источника не было 58 минут 
Сообщения
 Добавлено: 2016-05-14 15:27
RG-ELEKTRO
Аватара пользователя
Стаж: 2 года 3 месяца
Сообщений: 7928
Спасибок: 53804
Лайков: 3304
Друзья / Les deux amis



Изображение


Год выпуска: 2015
Страна: Франция
Жанр: мелодрама, комедия
Продолжительность: 01:38:08
Перевод: Профессиональный многоголосый [iTunes]

Режиссёр: Луи Гаррель
В ролях: Голшифте Фарахани, Венсан Макен, Луи Гаррель, Мао Адам, Пьер Мэйллет, Кристель Делоз, Ризлен Эль Коэн, Йен Трам Ле Тхи, Хитоми Рьоке Дюран, Улисс Королитски
Описание: Двое друзей - это заносчивый красавчик Абель и начинающий актер Клеман. Дружба дает трещину, когда оба влюбляются в Мону - симпатичную продавщицу в кофейном киоске на Северном Вокзале Парижа. Смешливая, но неприступная и загадочная, она не поддается на уловки романтиков - и на то есть причина. Любовный треугольник, то нелепый, то довольно опасный, складывается сам собой. Трое таких разных людей отправляются на ночную прогулку, которая раскроет тайну Моны и навсегда изменит друзей.

Изображение Изображение
Качество: WEB-DL 1080p
Формат: MKV
Видео кодек: MPEG-4 AVC
Аудио кодек: AC3
Видео: MPEG-4 AVC, 1912x1036 (16:9), 5143 kbps, 25 fps, 0,104 bpp
Аудио #1: AC3 / 5.1 / 48 kHz / 384 kbps / 16 bit [Профессиональный многоголосый [iTunes]]

"MI"
General
Unique ID : 238911040976206210244888249318126742743 (0xB3BC97C0D41BBF77BBEA3714AF7D6CD7)
Complete name : E:Les.deux.amis.2015.WEB-DL.1080p.Rus-C!v.mkv
Format : Matroska
Format version : Version 4 / Version 2
File size : 3.87 GiB
Duration : 1h 38mn
Overall bit rate : 5 640 Kbps
Encoded date : UTC 2016-05-13 08:25:41
Writing application : mkvmerge v8.3.0 ('Over the Horizon') 64bit
Writing library : libebml v1.3.1 + libmatroska v1.4.2
DURATION : 01:38:08.352000000
NUMBER_OF_FRAMES : 184011
NUMBER_OF_BYTES : 282640896
_STATISTICS_WRITING_APP : mkvmerge v8.3.0 ('Over the Horizon') 64bit
_STATISTICS_WRITING_DATE_UTC : 2016-05-13 08:25:41
_STATISTICS_TAGS : BPS DURATION NUMBER_OF_FRAMES NUMBER_OF_BYTES

Video
ID : 1
Format : AVC
Format/Info : Advanced Video Codec
Format profile : High@L4.0
Format settings, CABAC : Yes
Format settings, ReFrames : 4 frames
Codec ID : V_MPEG4/ISO/AVC
Duration : 1h 38mn
Bit rate : 5 143 Kbps
Width : 1 912 pixels
Height : 1 036 pixels
Display aspect ratio : 16:9
Frame rate : 25.000 fps
Color space : YUV
Chroma subsampling : 4:2:0
Bit depth : 8 bits
Scan type : Progressive
Bits/(Pixel*Frame) : 0.104
Stream size : 3.53 GiB (91%)
Language : English
Default : Yes
Forced : No
Color primaries : BT.709-5, BT.1361, IEC 61966-2-4, SMPTE RP177
Transfer characteristics : BT.709-5, BT.1361
Matrix coefficients : BT.709-5, BT.1361, IEC 61966-2-4 709, SMPTE RP177

Audio
ID : 2
Format : AC-3
Format/Info : Audio Coding 3
Mode extension : CM (complete main)
Codec ID : A_AC3
Duration : 1h 38mn
Bit rate mode : Constant
Bit rate : 384 Kbps
Channel(s) : 6 channels
Channel positions : Front: L C R, Side: L R, LFE
Sampling rate : 48.0 KHz
Bit depth : 16 bits
Compression mode : Lossy
Stream size : 270 MiB (7%)
Language : Russian
Default : Yes
Forced : No

Menu
00:00:00.000 : en:Глава 1
00:29:54.000 : en:Глава 2
01:00:28.000 : en:Глава 3
01:33:16.000 : en:Глава 4
Свернуть

Скриншоты
Изображение
Изображение
Изображение
Свернуть
Изображение


Изображение Изображение
Не в сети
Профиль  
Начать новую темуОтветить на тему  [ 1 сообщение ] 
Вы не можете начинать темы
Вы не можете отвечать на сообщения
Вы не можете редактировать свои сообщения
Вы не можете удалять свои сообщения