Начать новую темуОтветить на тему  [ Сообщений: 11 ] 
Торрент файл
Размер: 7.8 GB • Зарегистрирован: 6 месяцев • Статус: * Не проверено
Скачан: 284 раза • Желающих скачать: 0 • Поблагодарили: 40 раз
 Раздают: 2  |  0 KB/s  ]   Качают: 0  |  0 KB/s  ] 
Сообщения
 Добавлено: 2016-05-31 06:03
DVD Release Group
Аватара пользователя
Стаж: 7 лет 1 месяц
Сообщений: 3563
Спасибок: 247498
Лайков: 1020
Экипаж


Изображение


Год выпуска: 2016
Страна: Россия
Жанр: Драма, приключения, триллер
Продолжительность: 02:17:10
Перевод: Не требуется
Режиссер: Николай Лебедев
В ролях: Данила Козловский, Владимир Машков, Агне Грудите, Сергей Кемпо, Катерина Шпица, Сергей Шакуров, Сергей Газаров, Елена Яковлева, Алёна Бабенко, Сергей Романович
Описание: История талантливого молодого летчика Алексея Гущина. Он не признает авторитетов, предпочитая поступать в соответствии с личным кодексом чести. За невыполнение абсурдного приказа его выгоняют из военной авиации, и только чудом он получает шанс летать на гражданских самолетах.
Гущин начинает свою летную жизнь сначала. Его наставник — командир воздушного судна — суровый и принципиальный Леонид Зинченко. Его коллега — второй пилот, неприступная красавица Александра. Отношения складываются непросто. Но на грани жизни и смерти, когда земля уходит из-под ног, вокруг — огонь и пепел и только в небе есть спасение, Гущин показывает все, на что он способен. Только вместе экипаж сможет совершить подвиг и спасти сотни жизней.
Изображение
Качество: BDRip 720p
Формат: MKV
Видео кодек: H.264
Аудио кодек: AC3, DTS
Видео: 1274x544 24fps 6000kbps
Аудио:
Аудио Rus: AC3 48kHz 6ch 640Kbps
Аудио Rus: DTS 48kHz 6ch 1510Kbps
"MediaInfo"
Формат : Matroska
Версия формата : Version 4 / Version 2
Размер файла : 7,80 Гбайт
Продолжительность : 2 ч. 17 м.
Общий поток : 8141 Кбит/сек
Название фильма : by bog3417
Дата кодирования : UTC 2016-05-31 02:21:32
Программа кодирования : mkvmerge v7.9.0 ('Birds') 64bit
Библиотека кодирования : libebml v1.3.1 + libmatroska v1.4.2
DURATION : 02:17:11.008000000
NUMBER_OF_FRAMES : 771657
NUMBER_OF_BYTES : 1552573996
_STATISTICS_WRITING_APP : mkvmerge v7.9.0 ('Birds') 64bit
_STATISTICS_WRITING_DATE_UTC : 2016-05-31 02:21:32
_STATISTICS_TAGS : BPS DURATION NUMBER_OF_FRAMES NUMBER_OF_BYTES

Видео
Идентификатор : 1
Формат : AVC
Формат/Информация : Advanced Video Codec
Профиль формата : High@L4.1
Параметр CABAC формата : Да
Параметр ReFrames формата : 12 кадров
Идентификатор кодека : V_MPEG4/ISO/AVC
Продолжительность : 2 ч. 17 м.
Битрейт : 6000 Кбит/сек
Ширина : 1274 пикселя
Высота : 544 пикселя
Соотношение сторон : 2,35:1
Режим частоты кадров : Постоянный
Частота кадров : 24,000 кадра/сек
Цветовое пространство : YUV
Субдискретизация насыщенности : 4:2:0
Битовая глубина : 8 бит
Тип развёртки : Прогрессивная
Бит/(Пиксели*Кадры) : 0.361
Размер потока : 5,59 Гбайт (72%)
Заголовок : by bog3417
Библиотека кодирования : x264 core 148 r2638 7599210
Настройки программы : cabac=1 / ref=12 / deblock=1:-3:-3 / analyse=0x3:0x133 / me=umh / subme=10 / psy=1 / psy_rd=1.00:0.00 / mixed_ref=1 / me_range=32 / chroma_me=1 / trellis=2 / 8x8dct=1 / cqm=0 / deadzone=21,11 / fast_pskip=0 / chroma_qp_offset=-2 / threads=12 / lookahead_threads=1 / sliced_threads=0 / nr=0 / decimate=0 / interlaced=0 / bluray_compat=0 / constrained_intra=0 / bframes=9 / b_pyramid=2 / b_adapt=1 / b_bias=0 / direct=3 / weightb=1 / open_gop=0 / weightp=2 / keyint=240 / keyint_min=23 / scenecut=40 / intra_refresh=0 / rc=2pass / mbtree=0 / bitrate=6000 / ratetol=1.0 / qcomp=0.60 / qpmin=0 / qpmax=69 / qpstep=4 / cplxblur=20.0 / qblur=0.5 / ip_ratio=1.40 / pb_ratio=1.30 / aq=3:0.80
Язык : English
Default : Да
Forced : Нет
DURATION : 02:17:10.959000000
NUMBER_OF_FRAMES : 197543
NUMBER_OF_BYTES : 6161774905
_STATISTICS_WRITING_APP : mkvmerge v7.9.0 ('Birds') 64bit
_STATISTICS_WRITING_DATE_UTC : 2016-05-31 02:21:32
_STATISTICS_TAGS : BPS DURATION NUMBER_OF_FRAMES NUMBER_OF_BYTES

Аудио #1
Идентификатор : 2
Формат : AC-3
Формат/Информация : Audio Coding 3
Расширение режима : CM (complete main)
Параметр Endianness формата : Big
Идентификатор кодека : A_AC3
Продолжительность : 2 ч. 17 м.
Вид битрейта : Постоянный
Битрейт : 640 Кбит/сек
Каналы : 6 каналов
Расположение каналов : Front: L C R, Side: L R, LFE
Частота : 48,0 КГц
Битовая глубина : 16 бит
Метод сжатия : С потерями
Размер потока : 628 Мбайт (8%)
Язык : Russian
Default : Да
Forced : Нет

Аудио #2
Идентификатор : 3
Формат : DTS
Формат/Информация : Digital Theater Systems
Режим : 16
Параметр Endianness формата : Big
Идентификатор кодека : A_DTS
Продолжительность : 2 ч. 17 м.
Вид битрейта : Постоянный
Битрейт : 1509 Кбит/сек
Каналы : 6 каналов
Расположение каналов : Front: L C R, Side: L R, LFE
Частота : 48,0 КГц
Битовая глубина : 16 бит
Метод сжатия : С потерями
Размер потока : 1,45 Гбайт (19%)
Язык : Russian
Default : Нет
Forced : Нет

Меню
00:00:00.000 : en:00:00:00.000
00:05:00.000 : en:00:05:00.000
00:10:00.000 : en:00:10:00.000
00:15:00.000 : en:00:15:00.000
00:20:00.000 : en:00:20:00.000
00:25:00.000 : en:00:25:00.000
00:30:00.000 : en:00:30:00.000
00:35:00.000 : en:00:35:00.000
00:40:00.000 : en:00:40:00.000
00:45:00.000 : en:00:45:00.000
00:50:00.000 : en:00:50:00.000
00:55:00.000 : en:00:55:00.000
01:00:00.000 : en:01:00:00.000
01:05:00.000 : en:01:05:00.000
01:10:00.000 : en:01:10:00.000
01:15:00.000 : en:01:15:00.000
01:20:00.000 : en:01:20:00.000
01:25:00.000 : en:01:25:00.000
01:30:00.000 : en:01:30:00.000
01:35:00.000 : en:01:35:00.000
01:40:00.000 : en:01:40:00.000
01:45:00.000 : en:01:45:00.000
01:50:00.000 : en:01:50:00.000
01:55:00.000 : en:01:55:00.000
02:00:00.000 : en:02:00:00.000
02:05:00.000 : en:02:05:00.000
02:10:00.000 : en:02:10:00.000
02:15:00.000 : en:02:15:00.000
Свернуть

"Скриншоты"
Изображение
Изображение
Изображение
Изображение
Свернуть
Не в сети
Профиль  
 Добавлено: 2016-05-31 08:53 (спустя 2 часа 49 минут)
Аватара пользователя
Стаж: 6 лет 11 месяцев
Сообщений: 29
Спасибок: 43
не воспроизводит на телевизоре , телевизор новый .
Не в сети
Профиль  
 Добавлено: 2016-05-31 11:19 (спустя 2 часа 26 минут)
DVD Release Group
Аватара пользователя
Стаж: 7 лет 1 месяц
Сообщений: 3563
Спасибок: 247498
Лайков: 1020

algseg:

не воспроизводит на телевизоре , телевизор новый .
И новому телевизору свойственно ломаться. :)
 lot нравится это.
Не в сети
Профиль  
 Добавлено: 2016-05-31 18:22 (спустя 7 часов)
Аватара пользователя
Стаж: 8 лет 7 месяцев
Сообщений: 165
Лайков: 6
Нормально на железном плеере :)
Не в сети
Профиль  
 Добавлено: 2016-05-31 21:16 (спустя 2 часа 54 минуты)
Стаж: 9 лет
Сообщений: 312
Спасибок: 347
Лайков: 9
Из крайности в крайность
То ремукс на 40 гигов, то 720р
Не в сети
Профиль  
 Добавлено: 2016-05-31 21:46 (спустя 29 минут)
DVD Release Group
Аватара пользователя
Стаж: 7 лет 1 месяц
Сообщений: 3563
Спасибок: 247498
Лайков: 1020
Blaster
720p-это крайность? Вы что хотите?
Не в сети
Профиль  
 Добавлено: 2016-05-31 21:50 (спустя 3 минуты)
Аватара пользователя
Стаж: 8 лет 7 месяцев
Сообщений: 165
Лайков: 6
Кое как досмотрел. Михалков опять чудит. То цитадель с черенками штурмует. Теперь людей на тросе между самолётами переправляет :ps_ih:
Не в сети
Профиль  
 Добавлено: 2016-05-31 22:13 (спустя 23 минуты)
Стаж: 9 лет
Сообщений: 312
Спасибок: 347
Лайков: 9

rastor:

Blaster
720p-это крайность? Вы что хотите?

1080, как обычно
Не в сети
Профиль  
 Добавлено: 2016-05-31 22:22 (спустя 8 минут)
DVD Release Group
Аватара пользователя
Стаж: 7 лет 1 месяц
Сообщений: 3563
Спасибок: 247498
Лайков: 1020
Blaster
Вы знаете я не слежу за вашими пристрастиями, то что вы качаете как обычно. А 1080p вы можете найти на нашем трекере.
Не в сети
Профиль  
 Добавлено: 2016-05-31 22:36 (спустя 13 минут)
Стаж: 9 лет
Сообщений: 312
Спасибок: 347
Лайков: 9

rastor:

Blaster
Вы знаете я не слежу за вашими пристрастиями, то что вы качаете как обычно. А 1080p вы можете найти на нашем трекере.

Сейчас уже да, можно найти. А на момент написание моего поста- не было
Но всё равно спасибо )
Не в сети
Профиль  
 Добавлено: 2016-06-06 21:29 (спустя 5 дней)
Стаж: 6 лет 10 месяцев
Сообщений: 21
дайте скорости!!!!
Не в сети
Профиль  
Начать новую темуОтветить на тему  [ Сообщений: 11 ] 
Вы не можете начинать темы
Вы не можете отвечать на сообщения
Вы не можете редактировать свои сообщения
Вы не можете удалять свои сообщения