Начать новую темуОтветить на тему  [ 1 сообщение ] 
Торрент файл
Размер: 4.19 GB • Зарегистрирован: 10 месяцев • Статус: * Не проверено
Скачан: 22 раза • Желающих скачать: 0 • Поблагодарили: 5 раз
 Раздают: 1  |  0 KB/s  ]   Качают: 0  |  0 KB/s  ] 
Сообщения
 Добавлено: 2016-01-07 15:19
RG-ELEKTRO
Аватара пользователя
Стаж: 2 года 3 месяца
Сообщений: 7928
Спасибок: 53740
Лайков: 3304
Эшби / Ashby


Изображение


Год выпуска: 2015
Страна: США
Жанр: драма, мелодрама, комедия, криминал
Продолжительность: 01:43:00
Перевод: Профессиональный (дубляж) [iTunes]|
Субтитры: Английские

Режиссёр: Тони МакНамара
В ролях: Микки Рурк, Нат Вулф, Эмма Робертс, Сара Силверман, Кевин Данн, Захари Найтон, Майкл Лернер, Джон Инос III, Стив Култер, Том Ноуики
Описание: Переехав в другой город, Эд начинает дружить со своим новым соседом Эшби — бывшим киллером ЦРУ, которому осталось жить всего несколько месяцев…

Изображение Изображение
Качество: BDRip 720p
Формат: MKV
Видео кодек: MPEG-4 AVC
Аудио кодек: AC3
Видео: MPEG-4 AVC, 1280x534, 4796 Кбит/сек, 23,976 кадр/сек, 0,293 Бит/[Пиксели*Кадры]
Аудио #1: AC3 / 5.1 / 48 kHz / 384 kbps [Профессиональный (дубляж)]
Аудио #2: английский / AC3 / 5.1 / 48 kHz / 640 kbps /
Субтитры: Английские

"MI"
Format : Matroska
Format version : Version 2
File size : 4.19 GiB
Duration : 1h 43mn
Overall bit rate : 5 817 Kbps
Movie name : Ashby.(2015).BDRip.720p.[denis100]
Encoded date : UTC 2016-01-07 08:36:16
Writing application : mkvmerge v5.8.0 ('No Sleep / Pillow') built on Sep 2 2012 15:37:04
Writing library : libebml v1.2.3 + libmatroska v1.3.0

Video
ID : 1
Format : AVC
Format/Info : Advanced Video Codec
Format profile : High@L4.1
Format settings, CABAC : Yes
Format settings, ReFrames : 11 frames
Codec ID : V_MPEG4/ISO/AVC
Duration : 1h 43mn
Bit rate : 4 796 Kbps
Width : 1 280 pixels
Height : 534 pixels
Display aspect ratio : 2.40:1
Frame rate : 23.976 fps
Color space : YUV
Chroma subsampling : 4:2:0
Bit depth : 8 bits
Scan type : Progressive
Bits/(Pixel*Frame) : 0.293
Stream size : 3.37 GiB (80%)
Title : Ashby.(2015).BDRip.720p.[denis100]
Writing library : x264 core 148 r2638 7599210
Encoding settings : cabac=1 / ref=11 / deblock=1:-3:-3 / analyse=0x3:0x133 / me=umh / subme=11 / psy=1 / psy_rd=1.00:0.00 / mixed_ref=1 / me_range=32 / chroma_me=1 / trellis=2 / 8x8dct=1 / cqm=0 / deadzone=21,11 / fast_pskip=0 / chroma_qp_offset=-2 / threads=6 / lookahead_threads=1 / sliced_threads=0 / nr=0 / decimate=1 / interlaced=0 / bluray_compat=0 / constrained_intra=0 / bframes=10 / b_pyramid=2 / b_adapt=2 / b_bias=0 / direct=3 / weightb=1 / open_gop=0 / weightp=2 / keyint=240 / keyint_min=23 / scenecut=40 / intra_refresh=0 / rc=2pass / mbtree=0 / bitrate=4796 / ratetol=1.0 / qcomp=0.60 / qpmin=0 / qpmax=69 / qpstep=4 / cplxblur=20.0 / qblur=0.5 / ip_ratio=1.40 / pb_ratio=1.30 / aq=2:1.00
Language : English
Default : Yes
Forced : No

Audio #1
ID : 2
Format : AC-3
Format/Info : Audio Coding 3
Mode extension : CM (complete main)
Codec ID : A_AC3
Duration : 1h 43mn
Bit rate mode : Constant
Bit rate : 384 Kbps
Channel(s) : 6 channels
Channel positions : Front: L C R, Side: L R, LFE
Sampling rate : 48.0 KHz
Bit depth : 16 bits
Compression mode : Lossy
Stream size : 283 MiB (7%)
Title : DUB, iTunes
Language : Russian
Default : Yes
Forced : No

Audio #2
ID : 3
Format : AC-3
Format/Info : Audio Coding 3
Mode extension : CM (complete main)
Codec ID : A_AC3
Duration : 1h 43mn
Bit rate mode : Constant
Bit rate : 640 Kbps
Channel(s) : 6 channels
Channel positions : Front: L C R, Side: L R, LFE
Sampling rate : 48.0 KHz
Bit depth : 16 bits
Compression mode : Lossy
Stream size : 472 MiB (11%)
Language : English
Default : No
Forced : No

Text
ID : 4
Format : UTF-8
Codec ID : S_TEXT/UTF8
Codec ID/Info : UTF-8 Plain Text
Language : English
Default : No
Forced : No

Menu
00:00:00.000 : en:00:00:00.000
00:07:42.212 : en:00:07:42.212
00:13:15.169 : en:00:13:15.169
00:18:51.005 : en:00:18:51.005
00:25:08.716 : en:00:25:08.716
00:29:19.967 : en:00:29:19.967
00:33:39.517 : en:00:33:39.517
00:42:00.059 : en:00:42:00.059
00:51:44.810 : en:00:51:44.810
00:55:49.179 : en:00:55:49.179
01:00:12.943 : en:01:00:12.943
01:05:25.213 : en:01:05:25.213
01:11:29.911 : en:01:11:29.911
01:18:38.172 : en:01:18:38.172
01:24:38.031 : en:01:24:38.031
01:27:34.291 : en:01:27:34.291
01:30:07.485 : en:01:30:07.485
01:38:48.714 : en:01:38:48.714
Свернуть

Скриншоты
Изображение
Изображение
Изображение
Свернуть
Изображение


Изображение Изображение
Не в сети
Профиль  
Начать новую темуОтветить на тему  [ 1 сообщение ] 
Вы не можете начинать темы
Вы не можете отвечать на сообщения
Вы не можете редактировать свои сообщения
Вы не можете удалять свои сообщения