Начать новую темуОтветить на тему  [ Сообщений: 7 ] 
Торрент файл
Размер: 2.59 GB • Зарегистрирован: 7 месяцев • Статус: * Не проверено
Скачан: 239 раз • Желающих скачать: 0 • Поблагодарили: 33 раза
 Раздают: 0  |  0 KB/s  ]   Качают: 0  |  0 KB/s  ] 
 Полного источника не было 3 часа 
Сообщения
 Добавлено: 2016-04-25 05:26
DVD Release Group
Аватара пользователя
Стаж: 7 лет 1 месяц
Сообщений: 3559
Спасибок: 247362
Лайков: 1018
Герой


Изображение


Год выпуска: 2016
Страна: Россия
Жанр: Драма, военный
Продолжительность: 01:16:09
Перевод: Не требуется
Режиссер: Юрий Васильев
В ролях: Дима Билан, Светлана Иванова, Александр Балуев, Татьяна Лютаева, Юлия Пересильд, Александр Головин, Марат Башаров, Александр Адабашьян, Лилита Озолиня, Александр Васильев
Описание: Начало ХХ века. Юная княжна Вера Чернышева и поручик Андрей Долматов знакомятся при весьма странных обстоятельствах. Симпатия, любовь... впереди, казалось, счастливая жизнь. И вдруг - катастрофа. Первая мировая война уводит его на фронт, а ее - медсестрой в госпиталь. Мир перевернулся, он охвачен ненавистью, злобой, жаждой власти. Одна война сменяет другую. Люди делятся на два враждующих лагеря, начинают судить друг друга, чинить жестокую расправу. Огонь времени губит все на своем пути, но любовь - бессмертна, она соединяет несколько поколений и напоминает о себе спустя сто лет.
Изображение
Качество: WEB-DL 1080p
Формат: MKV
Видео кодек: H.264
Аудио кодек: AC3
Видео: 1920x806 25fps 4385kbps
Аудио: 48kHz 6ch 384kbps
"MediaInfo"
Формат : Matroska
Версия формата : Version 2
Размер файла : 2,59 Гбайт
Продолжительность : 1 ч. 16 м.
Общий поток : 4866 Кбит/сек
Дата кодирования : UTC 2016-04-24 21:42:40
Программа кодирования : mkvmerge v8.3.0 ('Over the Horizon') 64bit
Библиотека кодирования : libebml v1.3.1 + libmatroska v1.4.2
DURATION : 01:16:08.064000000
NUMBER_OF_FRAMES : 142752
NUMBER_OF_BYTES : 219267072
_STATISTICS_WRITING_APP : mkvmerge v8.3.0 ('Over the Horizon') 64bit
_STATISTICS_WRITING_DATE_UTC : 2016-04-24 21:42:40
_STATISTICS_TAGS : BPS DURATION NUMBER_OF_FRAMES NUMBER_OF_BYTES

Видео
Идентификатор : 1
Формат : AVC
Формат/Информация : Advanced Video Codec
Профиль формата : High@L4.0
Параметр CABAC формата : Да
Параметр ReFrames формата : 5 кадров
Идентификатор кодека : V_MPEG4/ISO/AVC
Продолжительность : 1 ч. 16 м.
Битрейт : 4385 Кбит/сек
Ширина : 1920 пикселей
Высота : 806 пикселей
Соотношение сторон : 2,40:1
Режим частоты кадров : Постоянный
Частота кадров : 25,000 кадров/сек
Цветовое пространство : YUV
Субдискретизация насыщенности : 4:2:0
Битовая глубина : 8 бит
Тип развёртки : Прогрессивная
Бит/(Пиксели*Кадры) : 0.113
Размер потока : 2,33 Гбайт (90%)
Язык : English
Default : Да
Forced : Нет
Основные цвета : BT.709
Характеристики трансфера : BT.709
Коэффициенты матрицы : BT.709

Аудио
Идентификатор : 2
Формат : AC-3
Формат/Информация : Audio Coding 3
Расширение режима : CM (complete main)
Параметр Endianness формата : Big
Идентификатор кодека : A_AC3
Продолжительность : 1 ч. 16 м.
Вид битрейта : Постоянный
Битрейт : 384 Кбит/сек
Каналы : 6 каналов
Расположение каналов : Front: L C R, Side: L R, LFE
Частота : 48,0 КГц
Битовая глубина : 16 бит
Метод сжатия : С потерями
Размер потока : 209 Мбайт (8%)
Язык : Russian
Default : Да
Forced : Нет

Меню
00:00:00.000 : en:Глава 1
00:05:28.760 : en:Глава 2
00:10:43.560 : en:Глава 3
00:17:46.440 : en:Глава 4
00:23:05.240 : en:Глава 5
00:29:18.200 : en:Глава 6
00:35:00.120 : en:Глава 7
00:40:56.840 : en:Глава 8
00:48:50.040 : en:Глава 9
00:54:15.520 : en:Глава 10
00:59:42.800 : en:Глава 11
01:06:23.600 : en:Глава 12
Свернуть

"Скриншоты"
Изображение
Изображение
Изображение
Свернуть
Не в сети
Профиль  
 Добавлено: 2016-04-25 11:00 (спустя 5 часов)
Аватара пользователя
Стаж: 8 лет 7 месяцев
Сообщений: 672
Спасибок: 84
Лайков: 84
Великий актерище - Дима Билан.
 Asuma нравится это.
Не в сети
Профиль  
 Добавлено: 2016-04-25 12:19 (спустя 1 час 19 минут)
Кинознаток ННТТ
Аватара пользователя
Стаж: 7 лет 9 месяцев
Возраст: 25
Сообщений: 1258
Спасибок: 42
Лайков: 55
Рейтинг Билан накрутил?
_________________
:exp_minus: :kav_boy: :ohot_nik:
Не в сети
Профиль  
 Добавлено: 2016-04-25 18:33 (спустя 6 часов)
Аватара пользователя
Стаж: 7 лет 2 месяца
Сообщений: 287
Спасибок: 76
Лайков: 20
Владимир Ленин - сокращенно Владлен. Дима Билан - сокращенно Дибил.
_________________
Изображение Изображение
 Микки, dseverus и Alexsever нравится это.
Не в сети
Профиль  
 Добавлено: 2016-04-26 21:10 (спустя 1 день 2 часа)
Аватара пользователя
Стаж: 7 лет 4 месяца
Сообщений: 94
Лайков: 1
А это точно полная версия фильма, на Кинопоиске продолжительность "86 мин. / 01:26"?
Не в сети
Профиль  
 Добавлено: 2016-04-30 19:28 (спустя 3 дня)
Стаж: 6 лет 7 месяцев
Сообщений: 45
Лайков: 6
Хорошее кино. Немного наивное, местами несуразное и абсурдное, но доброе и технически сделанное добротно. Хорошая визуальная картинка. Посмотрел с удовольствием.
Не в сети
Профиль  
 Добавлено: 2016-08-20 19:25 (спустя 3 месяца 19 дней)
Модератор
Аватара пользователя
Стаж: 9 лет
Возраст: 34
Сообщений: 401
Спасибок: 1066
pavelll
в точку!
+1
_________________
Или йя не ЯСНО сказАл?! Изображение
Не в сети
Профиль  
Начать новую темуОтветить на тему  [ Сообщений: 7 ] 
Вы не можете начинать темы
Вы не можете отвечать на сообщения
Вы не можете редактировать свои сообщения
Вы не можете удалять свои сообщения