Начать новую темуОтветить на тему  [ 1 сообщение ] 
Торрент файл
Размер: 8.51 GB • Зарегистрирован: 11 месяцев • Статус: * Не проверено
Скачан: 23 раза • Желающих скачать: 0 • Поблагодарили: 6 раз
 Раздают: 0  |  0 KB/s  ]   Качают: 0  |  0 KB/s  ] 
 Полного источника не было 8 дней 
Сообщения
 Добавлено: 2015-12-10 15:45
RG-ELEKTRO
Аватара пользователя
Стаж: 2 года 3 месяца
Сообщений: 7928
Спасибок: 53736
Лайков: 3304
Город монстров / Tales of Halloween


«Ночь разбудит их»

Изображение


Год выпуска: 2015
Страна: США
Жанр: Ужасы
Продолжительность: 01:37:20
Перевод: Дублированный [Чистый звук]

Режиссёр: Даррен Линн Боусман, Аксель Кэролин, Адам Гираш
В ролях: Бу Бу Стюарт, Бен Вулф, Бэрри Боствик, Грэйс Фиппс, Лин Шэй, Эдриенн Барбо, Серина Винсент, Лиза Мари, Грег Гранберг, Сэм Уитвер
Описание: Десять историй, объединенные одной общей темой Хэллоуина, переплетаются вместе в американском пригороде, где упыри, черти, пришельцы и убийцы с топором появляются только в течение одной ночи, чтобы терроризировать ничего не подозревающих жителей.

Изображение Изображение Изображение
Качество: BDRip 1080p
Формат: MKV
Видео кодек: MPEG-4 AVC
Аудио кодек: AC3 / DTS
Видео: MPEG-4 AVC, 10400 kb/s, 1920x804
Аудио #1: AC3, 384 kb/s (2 ch) [Дублированный [Чистый звук]]
Аудио #2: English: DTS, 1510 kb/s (6 ch)
Субтитры: English

"MI"

General
Unique ID : 182321002230296386840118919752915599221 (0x8929BF6DC35A7D7A90A640F2A2AFBF75)
Complete name : /media/sdb1/home/immortalseed/Torrents/Gorod.monstrov.2015.D.BDRip.1080p.mkv
Format : Matroska
Format version : Version 4 / Version 2
File size : 8.51 GiB
Duration : 1h 37mn
Overall bit rate : 12.5 Mbps
Encoded date : UTC 2015-12-09 23:28:55
Writing application : mkvmerge v8.3.0 ('Over the Horizon') 64bit
Writing library : libebml v1.3.1 + libmatroska v1.4.2
DURATION : 01:36:10.333000000
NUMBER_OF_FRAMES : 62
NUMBER_OF_BYTES : 193140
_STATISTICS_WRITING_APP : mkvmerge v8.3.0 ('Over the Horizon') 64bit
_STATISTICS_WRITING_DATE_UTC : 2015-12-09 23:28:55
_STATISTICS_TAGS : BPS DURATION NUMBER_OF_FRAMES NUMBER_OF_BYTES

Video
ID : 1
Format : AVC
Format/Info : Advanced Video Codec
Format profile : High@L4.1
Format settings, CABAC : Yes
Format settings, ReFrames : 4 frames
Codec ID : V_MPEG4/ISO/AVC
Duration : 1h 37mn
Bit rate : 10.4 Mbps
Width : 1 920 pixels
Height : 804 pixels
Display aspect ratio : 2.40:1
Frame rate mode : Constant
Frame rate : 24.000 fps
Color space : YUV
Chroma subsampling : 4:2:0
Bit depth : 8 bits
Scan type : Progressive
Bits/(Pixel*Frame) : 0.280
Stream size : 7.06 GiB (83%)
Writing library : x264 core 142 r2431+42 c69a006 tMod [8-bit@4:2:0 X86_64]
Encoding settings : cabac=1 / ref=4 / deblock=1:-3:-3 / analyse=0x3:0x113 / me=umh / subme=11 / psy=1 / fade_compensate=0.00 / psy_rd=1.00:0.05 / mixed_ref=1 / me_range=48 / chroma_me=1 / trellis=2 / 8x8dct=1 / cqm=0 / deadzone=21,11 / fast_pskip=0 / chroma_qp_offset=-2 / threads=12 / lookahead_threads=2 / sliced_threads=0 / nr=0 / decimate=1 / interlaced=0 / bluray_compat=0 / constrained_intra=0 / fgo=0 / bframes=8 / b_pyramid=2 / b_adapt=2 / b_bias=0 / direct=3 / weightb=1 / open_gop=0 / weightp=2 / keyint=250 / keyint_min=24 / scenecut=40 / intra_refresh=0 / rc_lookahead=40 / rc=crf / mbtree=0 / crf=19.0000 / qcomp=0.60 / qpmin=0:0:0 / qpmax=69:69:69 / qpstep=4 / vbv_maxrate=50000 / vbv_bufsize=45000 / crf_max=0.0 / nal_hrd=none / filler=0 / ip_ratio=1.40 / pb_ratio=1.30 / aq=3:1.00 / aq-sensitivity=10.00 / aq-factor=1.00:1.00:1.00 / aq2=0 / aq3=0
Language : English
Default : Yes
Forced : No
Matrix coefficients : BT.709
DURATION : 01:37:15.000000000
NUMBER_OF_FRAMES : 140040
NUMBER_OF_BYTES : 7754471937
_STATISTICS_WRITING_APP : mkvmerge v8.3.0 ('Over the Horizon') 64bit
_STATISTICS_WRITING_DATE_UTC : 2015-12-09 23:28:55
_STATISTICS_TAGS : BPS DURATION NUMBER_OF_FRAMES NUMBER_OF_BYTES

Audio #1
ID : 2
Format : AC-3
Format/Info : Audio Coding 3
Mode extension : CM (complete main)
Format settings, Endianness : Big
Codec ID : A_AC3
Duration : 1h 37mn
Bit rate mode : Constant
Bit rate : 384 Kbps
Channel(s) : 2 channels
Channel positions : Front: L R
Sampling rate : 48.0 KHz
Bit depth : 16 bits
Compression mode : Lossy
Stream size : 267 MiB (3%)
Language : Russian
Default : Yes
Forced : No

Audio #2
ID : 3
Format : DTS
Format/Info : Digital Theater Systems
Mode : 16
Format settings, Endianness : Big
Codec ID : A_DTS
Duration : 1h 37mn
Bit rate mode : Constant
Bit rate : 1 509 Kbps
Channel(s) : 6 channels
Channel positions : Front: L C R, Side: L R, LFE
Sampling rate : 48.0 KHz
Bit depth : 24 bits
Compression mode : Lossy
Stream size : 1.03 GiB (12%)
Language : English
Default : No
Forced : No

Text #1
ID : 4
Format : PGS
Muxing mode : zlib
Codec ID : S_HDMV/PGS
Codec ID/Info : The same subtitle format used on BDs/HD-DVDs
Language : English
Default : No
Forced : No

Text #2
ID : 5
Format : PGS
Muxing mode : zlib
Codec ID : S_HDMV/PGS
Codec ID/Info : The same subtitle format used on BDs/HD-DVDs
Language : English
Default : No
Forced : No
Свернуть

Скриншоты
Изображение
Изображение
Изображение
Свернуть
Изображение


Изображение Изображение
_________________
Не ищите меня в "ВКонтакте", в "Одноклассниках" меня нет - я на трекерах сижу!
Не в сети
Профиль  
Начать новую темуОтветить на тему  [ 1 сообщение ] 
Вы не можете начинать темы
Вы не можете отвечать на сообщения
Вы не можете редактировать свои сообщения
Вы не можете удалять свои сообщения