Начать новую темуОтветить на тему  [ Сообщений: 3 ] 
Торрент файл
Размер: 9.06 GB • Зарегистрирован: 6 месяцев • Статус: * Не проверено
Скачан: 56 раз • Желающих скачать: 0 • Поблагодарили: 7 раз
 Раздают: 2  |  195 KB/s  ]   Качают: 0  |  0 KB/s  ] 
Сообщения
 Добавлено: 2016-05-11 07:27
RG-ELEKTRO
Аватара пользователя
Стаж: 2 года 3 месяца
Сообщений: 7928
Спасибок: 53757
Лайков: 3304
И грянул шторм / The Finest Hours

Изображение

Изображение

Год выпуска: 2016
Страна: США
Жанр: боевик, триллер, драма, история
Продолжительность: 01:57:17
Перевод: Профессиональный (полное дублирование) [Line]

Режиссёр: Крэйг Гиллеспи
В ролях: Крис Пайн, Кейси Аффлек, Бен Фостер, Эрик Бана, Холлидей Грейнджер, Джон Ортис, Кайл Галлнер, Джон Магаро, Грэм МакТавиш, Майкл Рэймонд-Джеймс
Описание: Сюжет фильма основан на реальных событиях, произошедших в 1952 году, когда сотрудники береговой охраны в самый разгар шторма, используя деревянные моторные лодки, пытались спасти экипаж двух нефтяных танкеров.

Изображение Изображение Изображение
Качество: BDRip 1080p
Формат: MKV
Видео кодек: MPEG4-AVC
Аудио кодек: AC3 / DTS
Видео: MPEG4-AVC, 1920x800 (2.40:1), 9163 kbps, 23,976 fps, 0,249 bpp
Аудио #1: AC3 / 2.0 / 48 kHz / 384 kbps / 16 bit [Профессиональный (полное дублирование) [Line]]
Аудио #2: DTS / 5.1 / 48 kHz / 1510 kbps / 24 bit (English)
Субтитры: русские (Full), английские (Full)

"MI"
General
Unique ID : 175622422308171916936036397957852513795 (0x841FA5F0A04828A1A8F962FFB9794603)
Complete name : E:The.Finest.Hour. (2016).BDRip.1080p.mkv
Format : Matroska
Format version : Version 4 / Version 2
File size : 9.06 GiB
Duration : 1h 57mn
Overall bit rate : 11.1 Mbps
Movie name : И грянул шторм (2016) BDRip 1080p
Encoded date : UTC 2016-05-10 22:02:33
Writing application : mkvmerge v9.1.0 ('Little Earthquakes') 64bit
Writing library : libebml v1.3.3 + libmatroska v1.4.4
DURATION : 01:49:04.691000000
NUMBER_OF_FRAMES : 912
NUMBER_OF_BYTES : 32470
_STATISTICS_WRITING_APP : mkvmerge v9.1.0 ('Little Earthquakes') 64bit
_STATISTICS_WRITING_DATE_UTC : 2016-05-10 22:02:33
_STATISTICS_TAGS : BPS DURATION NUMBER_OF_FRAMES NUMBER_OF_BYTES

Video
ID : 1
Format : AVC
Format/Info : Advanced Video Codec
Format profile : High@L4.1
Format settings, CABAC : Yes
Format settings, ReFrames : 5 frames
Codec ID : V_MPEG4/ISO/AVC
Duration : 1h 57mn
Bit rate : 9 163 Kbps
Width : 1 920 pixels
Height : 800 pixels
Display aspect ratio : 2.40:1
Frame rate : 23.976 fps
Color space : YUV
Chroma subsampling : 4:2:0
Bit depth : 8 bits
Scan type : Progressive
Bits/(Pixel*Frame) : 0.249
Stream size : 7.33 GiB (81%)
Writing library : x264 core 148 r2692 64f4e24
Encoding settings : cabac=1 / ref=5 / deblock=1:0:0 / analyse=0x3:0x133 / me=umh / subme=7 / psy=1 / psy_rd=1.00:0.00 / mixed_ref=1 / me_range=16 / chroma_me=1 / trellis=1 / 8x8dct=1 / cqm=0 / deadzone=21,11 / fast_pskip=0 / chroma_qp_offset=-2 / threads=18 / lookahead_threads=3 / sliced_threads=0 / nr=0 / decimate=1 / interlaced=0 / bluray_compat=0 / constrained_intra=0 / bframes=3 / b_pyramid=2 / b_adapt=1 / b_bias=0 / direct=1 / weightb=1 / open_gop=0 / weightp=2 / keyint=250 / keyint_min=23 / scenecut=40 / intra_refresh=0 / rc_lookahead=40 / rc=2pass / mbtree=1 / bitrate=9163 / ratetol=1.0 / qcomp=0.60 / qpmin=0 / qpmax=69 / qpstep=4 / cplxblur=20.0 / qblur=0.5 / ip_ratio=1.40 / aq=1:1.00
Language : English
Default : Yes
Forced : No
DURATION : 01:57:18.543000000
NUMBER_OF_FRAMES : 168756
NUMBER_OF_BYTES : 8058873240
_STATISTICS_WRITING_APP : mkvmerge v9.1.0 ('Little Earthquakes') 64bit
_STATISTICS_WRITING_DATE_UTC : 2016-05-10 22:02:33
_STATISTICS_TAGS : BPS DURATION NUMBER_OF_FRAMES NUMBER_OF_BYTES

Audio #1
ID : 2
Format : AC-3
Format/Info : Audio Coding 3
Mode extension : CM (complete main)
Codec ID : A_AC3
Duration : 1h 57mn
Bit rate mode : Constant
Bit rate : 384 Kbps
Channel(s) : 2 channels
Channel positions : Front: L R
Sampling rate : 48.0 KHz
Bit depth : 16 bits
Compression mode : Lossy
Delay relative to video : 500ms
Stream size : 322 MiB (3%)
Title : Line
Language : Russian
Default : Yes
Forced : No

Audio #2
ID : 3
Format : DTS
Format/Info : Digital Theater Systems
Codec ID : A_DTS
Duration : 1h 57mn
Bit rate mode : Constant
Bit rate : 1 510 Kbps
Channel(s) : 6 channels
Channel positions : Front: L C R, Side: L R, LFE
Sampling rate : 48.0 KHz
Bit depth : 24 bits
Compression mode : Lossy
Stream size : 1.24 GiB (14%)
Title : Оригинал
Language : English
Default : No
Forced : No

Text #1
ID : 4
Format : UTF-8
Codec ID : S_TEXT/UTF8
Codec ID/Info : UTF-8 Plain Text
Title : Full
Language : Russian
Default : No
Forced : No

Text #2
ID : 5
Format : UTF-8
Codec ID : S_TEXT/UTF8
Codec ID/Info : UTF-8 Plain Text
Title : Full
Language : English
Default : No
Forced : No

Menu
00:00:00.000 : en:00:00:00.000
00:09:13.887 : en:00:09:13.887
00:14:22.195 : en:00:14:22.195
00:19:52.108 : en:00:19:52.108
00:22:56.792 : en:00:22:56.792
00:28:34.379 : en:00:28:34.379
00:34:05.210 : en:00:34:05.210
00:36:59.384 : en:00:36:59.384
00:42:50.902 : en:00:42:50.902
00:45:01.157 : en:00:45:01.157
00:46:59.442 : en:00:46:59.442
00:48:44.463 : en:00:48:44.463
00:50:12.551 : en:00:50:12.551
00:55:53.141 : en:00:55:53.141
01:04:47.967 : en:01:04:47.967
01:08:58.634 : en:01:08:58.634
01:11:38.836 : en:01:11:38.836
01:16:16.489 : en:01:16:16.489
01:20:30.325 : en:01:20:30.325
01:33:30.480 : en:01:33:30.480
01:42:27.641 : en:01:42:27.641
01:49:40.324 : en:01:49:40.324
Свернуть

Скриншоты
Изображение
Изображение
Изображение
Свернуть
Изображение


Изображение Изображение
_________________
Не ищите меня в "ВКонтакте", в "Одноклассниках" меня нет - я на трекерах сижу!
Не в сети
Профиль  
 Добавлено: 2016-05-11 10:00 (спустя 2 часа 33 минуты)
Стаж: 6 лет 7 месяцев
Сообщений: 43
Лайков: 6
а 6-ти канальный звук будет?
Не в сети
Профиль  
 Добавлено: 2016-05-11 10:05 (спустя 5 минут)
RG-ELEKTRO
Аватара пользователя
Стаж: 2 года 3 месяца
Сообщений: 7928
Спасибок: 53757
Лайков: 3304
будет
_________________
Не ищите меня в "ВКонтакте", в "Одноклассниках" меня нет - я на трекерах сижу!
Не в сети
Профиль  
Начать новую темуОтветить на тему  [ Сообщений: 3 ] 
Вы не можете начинать темы
Вы не можете отвечать на сообщения
Вы не можете редактировать свои сообщения
Вы не можете удалять свои сообщения