Начать новую темуОтветить на тему  [ Сообщений: 3 ] 
Торрент файл
Размер: 4.3 GB • Зарегистрирован: 7 месяцев • Статус: * Не проверено
Скачан: 209 раз • Желающих скачать: 0 • Поблагодарили: 32 раза
 Раздают: 1  |  0.2 KB/s  ]   Качают: 0  |  0 KB/s  ] 
Сообщения
 Добавлено: 2016-04-13 22:54
DVD Release Group
Аватара пользователя
Стаж: 7 лет 1 месяц
Сообщений: 3542
Спасибок: 246684
Лайков: 1016
И грянул шторм

The Finest Hours


Изображение


Год выпуска: 2016
Страна: США
Жанр: Боевик, триллер, драма, история
Продолжительность: 01:57:17
Перевод: Профессиональный (полное дублирование) чистый звук
Режиссер: Крэйг Гиллеспи
В ролях: Крис Пайн, Кейси Аффлек, Бен Фостер, Эрик Бана, Холлидей Грейнджер, Джон Ортис, Кайл Галлнер, Джон Магаро, Грэм МакТавиш, Майкл Рэймонд-Джеймс
Описание: Сюжет фильма основан на реальных событиях, произошедших в 1952 году, когда сотрудники береговой охраны в самый разгар шторма, используя деревянные моторные лодки, пытались спасти экипаж двух нефтяных танкеров.
Изображение
Sample:
http://sendfile.su/1221952
Качество: WEB-DL 1080p
Формат: MKV
Видео кодек: H.264
Аудио кодек: AC3
Видео: 1920x800 23.98fps 4372kbps
Аудио:
Аудио Rus: 48kHz 2ch 384kbps
Аудио Eng: 48kHz 6ch 384kbps
"MediaInfo"
Формат : Matroska
Версия формата : Version 4 / Version 2
Размер файла : 4,30 Гбайт
Продолжительность : 1 ч. 57 м.
Общий поток : 5244 Кбит/сек
Название фильма : The.Finest.Hours.2016.1080p.WEB-DL.DD5.1.H264 by R.G. HD-Films
Дата кодирования : UTC 2016-04-13 18:48:55
Программа кодирования : mkvmerge v9.0.1 ('Obstacles') 64bit
Библиотека кодирования : libebml v1.3.3 + libmatroska v1.4.4

Видео
Идентификатор : 1
Формат : AVC
Формат/Информация : Advanced Video Codec
Профиль формата : High@L4.0
Параметр CABAC формата : Да
Параметр ReFrames формата : 5 кадров
Идентификатор кодека : V_MPEG4/ISO/AVC
Продолжительность : 1 ч. 57 м.
Битрейт : 4372 Кбит/сек
Ширина : 1920 пикселей
Высота : 800 пикселей
Соотношение сторон : 2,40:1
Режим частоты кадров : Постоянный
Частота кадров : 23,976 кадра/сек
Цветовое пространство : YUV
Субдискретизация насыщенности : 4:2:0
Битовая глубина : 8 бит
Тип развёртки : Прогрессивная
Бит/(Пиксели*Кадры) : 0.119
Размер потока : 3,58 Гбайт (83%)
Язык : English
Default : Да
Forced : Нет
Основные цвета : BT.709
Характеристики трансфера : BT.709
Коэффициенты матрицы : BT.709

Аудио #1
Идентификатор : 2
Формат : AC-3
Формат/Информация : Audio Coding 3
Расширение режима : CM (complete main)
Параметр Endianness формата : Big
Идентификатор кодека : A_AC3
Продолжительность : 1 ч. 57 м.
Вид битрейта : Постоянный
Битрейт : 384 Кбит/сек
Каналы : 2 канала
Расположение каналов : Front: L R
Частота : 48,0 КГц
Битовая глубина : 16 бит
Метод сжатия : С потерями
Размер потока : 322 Мбайт (7%)
Заголовок : Дубляж - Чистый звук
Язык : Russian
Default : Да
Forced : Нет

Аудио #2
Идентификатор : 3
Формат : AC-3
Формат/Информация : Audio Coding 3
Расширение режима : CM (complete main)
Параметр Endianness формата : Big
Идентификатор кодека : A_AC3
Продолжительность : 1 ч. 57 м.
Вид битрейта : Постоянный
Битрейт : 384 Кбит/сек
Каналы : 6 каналов
Расположение каналов : Front: L C R, Side: L R, LFE
Частота : 48,0 КГц
Битовая глубина : 16 бит
Метод сжатия : С потерями
Размер потока : 322 Мбайт (7%)
Заголовок : Оригинал
Язык : English
Default : Нет
Forced : Нет

Меню
00:00:00.000 : en:Meeting Miriam
00:09:14.000 : en:The Dance Hall
00:14:22.000 : en:The Pendleton Under Pressure
00:19:52.000 : en:Distress Call
00:22:57.000 : en:What Should We Do?
00:28:34.000 : en:Ship Spotted
00:34:05.000 : en:Sybert's Plan
00:36:59.000 : en:Volunteers Needed
00:42:51.000 : en:Aiming For The Shoal
00:45:01.000 : en:The Guard Heads Out
00:46:59.000 : en:Miriam Visits The Station
00:48:44.000 : en:Wave!
00:50:12.000 : en:Miriam Confronts Cluff
00:55:53.000 : en:Crossing The Bar
01:04:13.000 : en:Beaching The Pendleton
01:08:58.000 : en:Riding The Waves
01:11:38.000 : en:Time Is Running Out
01:16:16.000 : en:The Waiting Game
01:20:30.000 : en:The Rescue
01:33:30.000 : en:The Long Trip Home
01:42:27.000 : en:Safe Harbor
01:49:40.000 : en:End Credits
Свернуть

"Скриншоты"
Изображение
Изображение
Изображение
Свернуть
Не в сети
Профиль  
 Добавлено: 2016-04-14 16:09 (спустя 17 часов)
Стаж: 6 лет 7 месяцев
Сообщений: 43
Лайков: 6
скажите пожалуйста а 6-ти канальный звук будет?
Не в сети
Профиль  
 Добавлено: 2016-04-14 16:42 (спустя 33 минуты)
DVD Release Group
Аватара пользователя
Стаж: 7 лет 1 месяц
Сообщений: 3542
Спасибок: 246684
Лайков: 1016
pavelll
Будет.
Не в сети
Профиль  
Начать новую темуОтветить на тему  [ Сообщений: 3 ] 
Вы не можете начинать темы
Вы не можете отвечать на сообщения
Вы не можете редактировать свои сообщения
Вы не можете удалять свои сообщения