Начать новую темуОтветить на тему  [ 1 сообщение ] 
Торрент файл
Размер: 14.33 GB • Зарегистрирован: 6 месяцев • Статус: * Не проверено
Скачан: 75 раз • Желающих скачать: 0 • Поблагодарили: 12 раз
 Раздают: 3  |  26 KB/s  ]   Качают: 0  |  0 KB/s  ] 
Сообщения
 Добавлено: 2016-05-24 05:19
DVD Release Group
Аватара пользователя
Стаж: 7 лет 1 месяц
Сообщений: 3570
Спасибок: 247852
Лайков: 1020
И грянул шторм

The Finest Hours


Изображение


Год выпуска: 2016
Страна: США
Жанр: Боевик, триллер, драма, история
Продолжительность: 01:57:17
Перевод: Профессиональный (полное дублирование)
Субтитры: Русские, английские
Режиссер: Крэйг Гиллеспи
В ролях: Крис Пайн, Кейси Аффлек, Бен Фостер, Эрик Бана, Холлидей Грейнджер, Джон Ортис, Кайл Галлнер, Джон Магаро, Грэм МакТавиш, Майкл Рэймонд-Джеймс
Описание: Сюжет фильма основан на реальных событиях, произошедших в 1952 году, когда сотрудники береговой охраны в самый разгар шторма, используя деревянные моторные лодки, пытались спасти экипаж двух нефтяных танкеров.
Изображение
Качество: BDRip 1080p
Формат: MKV
Видео кодек: H.264
Аудио кодек: AC3, DTS
Видео: 1920x800 23.98fps 15200kbps
Аудио:
Аудио Rus: AC3 48kHz 6ch 384kbps
Аудио Eng: DTS 48kHz 6ch 1510kbps
"MediaInfo"
Формат : Matroska
Версия формата : Version 4 / Version 2
Размер файла : 14,3 Гбайт
Продолжительность : 1 ч. 57 м.
Общий поток : 17,5 Мбит/сек
Название фильма : The.Finest.Hours.2016.BDRip.1080p.ExKinoRay
Дата кодирования : UTC 2016-05-23 23:02:23
Программа кодирования : mkvmerge v8.3.0 ('Over the Horizon') 64bit
Библиотека кодирования : libebml v1.3.1 + libmatroska v1.4.2

Видео
Идентификатор : 1
Формат : AVC
Формат/Информация : Advanced Video Codec
Профиль формата : High@L4.1
Параметр CABAC формата : Да
Параметр ReFrames формата : 5 кадров
Идентификатор кодека : V_MPEG4/ISO/AVC
Продолжительность : 1 ч. 57 м.
Битрейт : 15,2 Мбит/сек
Ширина : 1920 пикселей
Высота : 800 пикселей
Соотношение сторон : 2,40:1
Режим частоты кадров : Постоянный
Частота кадров : 23,976 кадра/сек
Цветовое пространство : YUV
Субдискретизация насыщенности : 4:2:0
Битовая глубина : 8 бит
Тип развёртки : Прогрессивная
Бит/(Пиксели*Кадры) : 0.414
Размер потока : 12,5 Гбайт (87%)
Библиотека кодирования : x264 core 148 r2665+53 6629127 t_mod_Custom [8-bit@all X86_64]
Настройки программы : cabac=1 / ref=5 / deblock=1:-3:-3 / analyse=0x3:0x133 / me=umh / subme=11 / psy=1 / fade_compensate=0.00 / psy_rd=1.05:0.00 / mixed_ref=1 / me_range=32 / chroma_me=1 / trellis=2 / 8x8dct=1 / cqm=0 / deadzone=21,11 / fast_pskip=0 / chroma_qp_offset=-2 / threads=16 / lookahead_threads=2 / sliced_threads=0 / nr=0 / decimate=0 / interlaced=0 / bluray_compat=0 / constrained_intra=0 / fgo=0 / bframes=8 / b_pyramid=2 / b_adapt=2 / b_bias=0 / direct=3 / weightb=1 / open_gop=0 / weightp=2 / keyint=250 / keyint_min=23 / scenecut=40 / intra_refresh=0 / rc_lookahead=150 / rc=crf / mbtree=0 / crf=17.4000 / qcomp=0.65 / qpmin=0:0:0 / qpmax=69:69:69 / qpstep=4 / vbv_maxrate=50000 / vbv_bufsize=62500 / crf_max=0.0 / nal_hrd=none / filler=0 / ip_ratio=1.30 / pb_ratio=1.20 / aq=3:0.80 / aq-sensitivity=10.00 / aq-factor=1.00:1.00:1.00 / aq2=0 / aq3=0 / zones=27012,28581,crf=14/49036,49171,crf=14/71261,71374,crf=14/86565,86666,crf=14/161652,168756,crf=22
Язык : English
Default : Да
Forced : Нет
Коэффициенты матрицы : BT.709

Аудио #1
Идентификатор : 2
Формат : AC-3
Формат/Информация : Audio Coding 3
Расширение режима : CM (complete main)
Параметр Endianness формата : Big
Идентификатор кодека : A_AC3
Продолжительность : 1 ч. 57 м.
Вид битрейта : Постоянный
Битрейт : 384 Кбит/сек
Каналы : 6 каналов
Расположение каналов : Front: L C R, Side: L R, LFE
Частота : 48,0 КГц
Битовая глубина : 16 бит
Метод сжатия : С потерями
Размер потока : 322 Мбайт (2%)
Заголовок : DUB [iTunes]
Язык : Russian
Default : Да
Forced : Нет

Аудио #2
Идентификатор : 3
Формат : DTS
Формат/Информация : Digital Theater Systems
Режим : 16
Параметр Endianness формата : Big
Идентификатор кодека : A_DTS
Продолжительность : 1 ч. 57 м.
Вид битрейта : Постоянный
Битрейт : 1509 Кбит/сек
Каналы : 6 каналов
Расположение каналов : Front: L C R, Side: L R, LFE
Частота : 48,0 КГц
Битовая глубина : 24 бит
Метод сжатия : С потерями
Размер потока : 1,24 Гбайт (9%)
Заголовок : Original
Язык : English
Default : Нет
Forced : Нет

Текст #1
Идентификатор : 4
Формат : UTF-8
Идентификатор кодека : S_TEXT/UTF8
Идентификатор кодека/Информация : UTF-8 Plain Text
Заголовок : Forced
Язык : Russian
Default : Да
Forced : Нет

Текст #2
Идентификатор : 5
Формат : UTF-8
Идентификатор кодека : S_TEXT/UTF8
Идентификатор кодека/Информация : UTF-8 Plain Text
Заголовок : Full
Язык : Russian
Default : Нет
Forced : Нет

Текст #3
Идентификатор : 6
Формат : UTF-8
Идентификатор кодека : S_TEXT/UTF8
Идентификатор кодека/Информация : UTF-8 Plain Text
Язык : English
Default : Нет
Forced : Нет

Текст #4
Идентификатор : 7
Формат : UTF-8
Идентификатор кодека : S_TEXT/UTF8
Идентификатор кодека/Информация : UTF-8 Plain Text
Заголовок : SDH
Язык : English
Default : Нет
Forced : Нет

Меню
00:00:00.000 : en:Chapter 01
00:09:13.887 : en:Chapter 02
00:14:22.195 : en:Chapter 03
00:19:52.108 : en:Chapter 04
00:22:56.792 : en:Chapter 05
00:28:34.379 : en:Chapter 06
00:34:05.210 : en:Chapter 07
00:36:59.384 : en:Chapter 08
00:42:50.902 : en:Chapter 09
00:45:01.157 : en:Chapter 10
00:46:59.442 : en:Chapter 11
00:48:44.463 : en:Chapter 12
00:50:12.551 : en:Chapter 13
00:55:53.141 : en:Chapter 14
01:04:47.967 : en:Chapter 15
01:08:58.634 : en:Chapter 16
01:11:38.836 : en:Chapter 17
01:16:16.489 : en:Chapter 18
01:20:30.325 : en:Chapter 19
01:33:30.480 : en:Chapter 20
01:42:27.641 : en:Chapter 21
01:49:40.324 : en:Chapter 22
Свернуть

"Скриншоты"
Изображение
Изображение
Изображение
Свернуть
В сети
Профиль  
Начать новую темуОтветить на тему  [ 1 сообщение ] 
Вы не можете начинать темы
Вы не можете отвечать на сообщения
Вы не можете редактировать свои сообщения
Вы не можете удалять свои сообщения