Начать новую темуОтветить на тему  [ 1 сообщение ] 
Торрент файл
Размер: 29.96 GB • Зарегистрирован: 6 месяцев • Статус: * Не проверено
Скачан: 38 раз • Желающих скачать: 0 • Поблагодарили: 11 раз
 Раздают: 1  |  3 KB/s  ]   Качают: 0  |  0 KB/s  ] 
Сообщения
 Добавлено: 2016-05-24 08:17
RG-ELEKTRO
Аватара пользователя
Стаж: 2 года 3 месяца
Сообщений: 7928
Спасибок: 53802
Лайков: 3304
И грянул шторм / The Finest Hours

Изображение

Изображение

Год выпуска: 2016
Страна: США
Жанр: боевик, триллер, драма, история
Продолжительность: 01:57:17
Перевод: Профессиональный (полное дублирование) [iTunes]

Режиссёр: Крэйг Гиллеспи
В ролях: Крис Пайн, Кейси Аффлек, Бен Фостер, Эрик Бана, Холлидей Грейнджер, Джон Ортис, Кайл Галлнер, Джон Магаро, Грэм МакТавиш, Майкл Рэймонд-Джеймс
Описание: Сюжет фильма основан на реальных событиях, произошедших в 1952 году, когда сотрудники береговой охраны в самый разгар шторма, используя деревянные моторные лодки, пытались спасти экипаж двух нефтяных танкеров.

Изображение Изображение
Качество: BDRemux 1080p
Формат: MKV
Видео кодек: MPEG4-AVC
Аудио кодек: AC3 / DTS-HD MA
Видео: MPEG4-AVC, 1920x1080, 30.8 Mbit/s, 23.976 fps
Аудио #1: 48 kHz, AC3, 5.1, 384 Kbps [Профессиональный (полное дублирование) [iTunes]
Аудио #2: 48 kHz, DTS-HD MA, 5.1, 5340 kbps (English)
Субтитры: Русские (forced,full), английские (srt,SDH)

"MI"
General
Unique ID : 214237440490115472268531677886051813071 (0xA12CA153CBD687A6A2A53CB183BC86CF)
Complete name : F:VideoThe finest stormThe.Finest.Hours.2016.BDREMUX.1080p.ExKinoRay.mkv
Format : Matroska
Format version : Version 4 / Version 2
File size : 30.0 GiB
Duration : 1h 57mn
Overall bit rate mode : Variable
Overall bit rate : 36.6 Mbps
Movie name : The.Finest.Hours.2016.BDREMUX.1080p.ExKinoRay
Encoded date : UTC 2016-05-24 02:53:06
Writing application : mkvmerge v8.3.0 ('Over the Horizon') 64bit
Writing library : libebml v1.3.1 + libmatroska v1.4.2

Video
ID : 1
Format : AVC
Format/Info : Advanced Video Codec
Format profile : High@L4.1
Format settings, CABAC : Yes
Format settings, ReFrames : 4 frames
Codec ID : V_MPEG4/ISO/AVC
Duration : 1h 57mn
Bit rate mode : Variable
Bit rate : 30.8 Mbps
Maximum bit rate : 32.9 Mbps
Width : 1 920 pixels
Height : 1 080 pixels
Display aspect ratio : 16:9
Frame rate mode : Constant
Frame rate : 23.976 (24000/1001) fps
Color space : YUV
Chroma subsampling : 4:2:0
Bit depth : 8 bits
Scan type : Progressive
Bits/(Pixel*Frame) : 0.620
Stream size : 25.3 GiB (84%)
Language : English
Default : Yes
Forced : No

Audio #1
ID : 2
Format : AC-3
Format/Info : Audio Coding 3
Mode extension : CM (complete main)
Format settings, Endianness : Big
Codec ID : A_AC3
Duration : 1h 57mn
Bit rate mode : Constant
Bit rate : 384 Kbps
Channel(s) : 6 channels
Channel positions : Front: L C R, Side: L R, LFE
Sampling rate : 48.0 KHz
Frame rate : 31.250 fps (1536 spf)
Compression mode : Lossy
Stream size : 322 MiB (1%)
Title : DUB [iTunes]
Language : Russian
Default : Yes
Forced : No

Audio #2
ID : 3
Format : DTS
Format/Info : Digital Theater Systems
Format profile : MA / Core
Mode : 16
Format settings, Endianness : Big
Codec ID : A_DTS
Duration : 1h 57mn
Bit rate mode : Variable / Constant
Bit rate : 5 340 Kbps / 1 509 Kbps
Channel(s) : 8 channels / 6 channels
Channel positions : Front: L C R, Side: L R, Back: L R, LFE / Front: L C R, Side: L R, LFE
Sampling rate : 48.0 KHz
Frame rate : 93.750 fps (512 spf)
Bit depth : 24 bits
Compression mode : Lossless / Lossy
Stream size : 4.38 GiB (15%)
Title : Original
Language : English
Default : No
Forced : No

Text #1
ID : 4
Format : UTF-8
Codec ID : S_TEXT/UTF8
Codec ID/Info : UTF-8 Plain Text
Duration : 1h 49mn
Bit rate : 1 bps
Count of elements : 13
Stream size : 978 Bytes (0%)
Title : Forced
Language : Russian
Default : Yes
Forced : No

Text #2
ID : 5
Format : UTF-8
Codec ID : S_TEXT/UTF8
Codec ID/Info : UTF-8 Plain Text
Duration : 1h 49mn
Bit rate : 72 bps
Count of elements : 968
Stream size : 58.2 KiB (0%)
Title : Full
Language : Russian
Default : No
Forced : No

Text #3
ID : 6
Format : UTF-8
Codec ID : S_TEXT/UTF8
Codec ID/Info : UTF-8 Plain Text
Duration : 1h 54mn
Bit rate : 48 bps
Count of elements : 1419
Stream size : 41.1 KiB (0%)
Language : English
Default : No
Forced : No

Text #4
ID : 7
Format : UTF-8
Codec ID : S_TEXT/UTF8
Codec ID/Info : UTF-8 Plain Text
Duration : 1h 55mn
Bit rate : 54 bps
Count of elements : 1618
Stream size : 46.1 KiB (0%)
Title : SDH
Language : English
Default : No
Forced : No

Menu
00:00:00.000 : en:Chapter 01
00:09:13.887 : en:Chapter 02
00:14:22.195 : en:Chapter 03
00:19:52.108 : en:Chapter 04
00:22:56.792 : en:Chapter 05
00:28:34.379 : en:Chapter 06
00:34:05.210 : en:Chapter 07
00:36:59.384 : en:Chapter 08
00:42:50.902 : en:Chapter 09
00:45:01.157 : en:Chapter 10
00:46:59.442 : en:Chapter 11
00:48:44.463 : en:Chapter 12
00:50:12.551 : en:Chapter 13
00:55:53.141 : en:Chapter 14
01:04:47.967 : en:Chapter 15
01:08:58.634 : en:Chapter 16
01:11:38.836 : en:Chapter 17
01:16:16.489 : en:Chapter 18
01:20:30.325 : en:Chapter 19
01:33:30.480 : en:Chapter 20
01:42:27.641 : en:Chapter 21
01:49:40.324 : en:Chapter 22
Свернуть

Скриншоты
Изображение
Изображение
Изображение
Свернуть
Изображение


Изображение Изображение
_________________
Не ищите меня в "ВКонтакте", в "Одноклассниках" меня нет - я на трекерах сижу!
Не в сети
Профиль  
Начать новую темуОтветить на тему  [ 1 сообщение ] 
Вы не можете начинать темы
Вы не можете отвечать на сообщения
Вы не можете редактировать свои сообщения
Вы не можете удалять свои сообщения